Охотник с Уолл-стрит / The Headhunter's Calling (Марк Уильямс) [2016, Драма, WEB-DL 720p]

КОММЕНТАРИИ

Likes


Охотник с Уолл-стрит / The Headhunter's Calling

«Нельзя победить того, кто не сдался»

6.4 / 10 6.4 / 10

-
Год выпуска: 2016
Производство: США, Канада
Жанр: Фантастика, Драма
Продолжительность: 01:50:15
Перевод: Дублированный (iTunes)
Субтитры: Отсутствуют
Реклама: Отсутствует
Возраст: 18+ (зрителям, достигшим 18 лет. запрещено для детей)
Рейтинг MPAA: R (лицам до 17 лет обязательно присутствие взрослого)
Дата мировой премьеры: 13 сентября 2016
Дата российской премьеры: 18 мая 2017, «Экспонента»
-
Режисер
Марк Уильямс
Продюсер
Джерард Батлер, Николя Картье, Крэйг Дж. Флорес
Актеры
Элисон Бри, Джерард Батлер, Альфред Молина, Уиллем Дефо, Гретхен Мол, Дастин Миллиган, Кэтлин Манро, Джулия Баттерз, Анупам Кхер, Сьерра Вулдридж
Описание
Циничный и обаятельный хедхантер с Уолл-стрит Дэйн Дженсен близок к осуществлению своей американской мечты и покорению бизнес-олимпа. Но его карьерные интересы внезапно входят в противоречие с жизнью его семьи. Перед Дэйном встает непростой вопрос выбора.

-Качество: WEB-DL 720p
Формат: M4V
Видео: H.264, 1280x536, 2.40:1, 3 950 Kbps, 23.976 fps
Аудио 1: Русский/Дублированный (iTunes), AAC / 2.0 / 160 Kbps / 48.0 KHz
Аудио 1: Английский/Оригинальная дорожка , AAC / 2.0 / 160 Kbps / 48.0 KHz
Аудио 2: Русский/Дублированный (iTunes), AC-3 / 5.1 / 384 Kbps / 48.0 KHz
Аудио 3: Английский/Оригинальная дорожка , AC-3 / 5.1 / 384 Kbps / 48.0 KHz
-

iTunes Meta Tags

Sort Name: Охотник с Уолл-стрит
XID: Apple:vendor_id:2016-568373
contentID: 1245983398
Copyright: © 2017 X-Media
Screenwriters: Билл Дюбюк
Producers: Джерард Батлер, Николя Картье, Крэйг Дж. Флорес
Director: Марк Уильямс
Cast: Элисон Бри, Джерард Батлер, Уиллем Дефо, Гретхен Мол, Дастин Миллиган, Альфред Молина, Кэтлин Манро, Джулия Баттерз, Анупам Кхер, Синди Дэй
Studio: G-BASE, Zero Gravity Management
Rating: 136
Long Description: Циничный и обаятельный хедхантер с Уолл-стрит Дэйн Дженсен близок к осуществлению своей американской мечты и покорению бизнес-олимпа. Но его карьерные интересы внезапно входят в противоречие с жизнью его семьи. Перед Дэйном встает непростой вопрос выбора.
Description: Циничный и обаятельный хедхантер с Уолл-стрит Дэйн Дженсен близок к осуществлению своей американской мечты и покорению бизнес-олимпа.
Release Date: 2016-09-13T08:00:00Z
Genre: Драма
Artist: Mark Williams
Name: Охотник с Уолл-стрит

MediaInfo

General
Complete name : /Users/imac/HandBrake/The.Headhunter\'s.Calling.WEB-DL.720p.m4v
Format : MPEG-4
Codec ID : M4V
File size : 3.88 GiB
Duration : 1h 50mn
Overall bit rate mode : Variable
Overall bit rate : 5 040 Kbps
Movie name : Охотник с Уолл-стрит
Performer : Mark Williams
Director : Марк Уильямс
Actor : Элисон Бри / Джерард Батлер / Уиллем Дефо / Гретхен Мол / Дастин Миллиган / Альфред Молина / Кэтлин Манро / Джулия Баттерз / Анупам Кхер / Синди Дэй
Screenplay by : Билл Дюбюк
Producer : Джерард Батлер / Николя Картье / Крэйг Дж. Флорес
Production studio : G-BASE, Zero Gravity Management
Genre : Драма
ContentType : Short Film
Description : Циничный и обаятельный хедхантер с Уолл-стрит Дэйн Дженсен близок к осуществлению своей американской мечты и покорению бизнес-олимпа.
Recorded date : UTC 2016-09-13 08:00:00
Encoded date : UTC 2017-06-18 12:31:27
Tagged date : UTC 2017-06-18 12:34:01
Copyright : © 2017 X-Media
Cover : Yes
Rating : None
Title/Sort : Охотник с Уолл-стрит
LongDescription : Циничный и обаятельный хедхантер с Уолл-стрит Дэйн Дженсен близок к осуществлению своей американской мечты и покорению бизнес-олимпа. Но его карьерные интересы внезапно входят в противоречие с жизнью его семьи. Перед Дэйном встает непростой вопрос выбора.
HDVideo : Yes
AppleStoreCatalogID : 1245983398
Vendor : Apple:vendor_id:2016-568373
ContentRating : ru-movie|18+|400|
Video #1
ID : 1
Format : AVC
Format/Info : Advanced Video Codec
Format profile : [email protected]
Format settings, CABAC : Yes
Format settings, ReFrames : 9 frames
Codec ID : avc1
Codec ID/Info : Advanced Video Coding
Duration : 1h 50mn
Bit rate : 3 950 Kbps
Width : 1 280 pixels
Height : 536 pixels
Display aspect ratio : 2.40:1
Frame rate mode : Variable
Frame rate : 23.976 fps
Minimum frame rate : 23.810 fps
Maximum frame rate : 24.390 fps
Color space : YUV
Chroma subsampling : 4:2:0
Bit depth : 8 bits
Scan type : Progressive
Bits/(Pixel*Frame) : 0.240
Stream size : 3.04 GiB (78%)
Title : Main Program
Writing library : x264 core 142 r2431+42 c69a006 tMod [[email protected] X86_64]
Encoding settings : cabac=1 / ref=9 / deblock=1:-3:-3 / analyse=0x3:0x133 / me=umh / subme=8 / psy=1 / fade_compensate=0.00 / psy_rd=1.05:0.15 / mixed_ref=1 / me_range=48 / chroma_me=1 / trellis=2 / 8x8dct=1 / cqm=0 / deadzone=21,11 / fast_pskip=1 / chroma_qp_offset=-3 / threads=16 / lookahead_threads=4 / sliced_threads=0 / nr=0 / decimate=0 / interlaced=0 / bluray_compat=0 / constrained_intra=0 / fgo=0 / bframes=4 / b_pyramid=2 / b_adapt=2 / b_bias=0 / direct=3 / weightb=1 / open_gop=0 / weightp=2 / keyint=240 / keyint_min=23 / scenecut=40 / intra_refresh=0 / rc_lookahead=60 / rc=2pass / mbtree=1 / bitrate=3950 / ratetol=1.0 / qcomp=0.70 / qpmin=0:0:0 / qpmax=69:69:69 / qpstep=4 / cplxblur=20.0 / qblur=0.5 / vbv_maxrate=50000 / vbv_bufsize=62500 / nal_hrd=none / filler=0 / ip_ratio=1.30 / aq=1:0.80 / aq-sensitivity=10.00 / aq-factor=1.00:1.00:1.00 / aq2=0 / aq3=0
Language : English
Encoded date : UTC 2017-06-18 12:31:27
Tagged date : UTC 2017-06-18 12:32:52
Color range : Limited
Color primaries : BT.709
Transfer characteristics : BT.709
Matrix coefficients : BT.709
Video #2
ID : 7
Format : JPEG
Codec ID : jpeg
Duration : 1h 50mn
Bit rate mode : Variable
Bit rate : 678 bps
Width : 640 pixels
Height : 268 pixels
Display aspect ratio : 2.40:1
Frame rate mode : Variable
Frame rate : 0.002 fps
Minimum frame rate : 0.001 fps
Maximum frame rate : 0.004 fps
Color space : YUV
Chroma subsampling : 4:2:0
Bit depth : 8 bits
Compression mode : Lossy
Bits/(Pixel*Frame) : 1.976
Stream size : 496 KiB (0%)
Title : Chapter Images
Language : English
Encoded date : UTC 2017-06-18 12:32:56
Tagged date : UTC 2017-06-18 12:32:56
Audio #1
ID : 2
Format : AAC
Format/Info : Advanced Audio Codec
Format profile : LC
Codec ID : 40
Duration : 1h 50mn
Bit rate mode : Variable
Bit rate : 157 Kbps
Maximum bit rate : 223 Kbps
Channel(s) : 2 channels
Channel positions : Front: L R
Sampling rate : 48.0 KHz
Compression mode : Lossy
Stream size : 124 MiB (3%)
Title : Russian Stereo
Language : Russian
Encoded date : UTC 2017-06-18 12:31:27
Tagged date : UTC 2017-06-18 12:31:34
Audio #2
ID : 3
Format : AAC
Format/Info : Advanced Audio Codec
Format profile : LC
Codec ID : 40
Duration : 1h 50mn
Bit rate mode : Variable
Bit rate : 156 Kbps
Maximum bit rate : 234 Kbps
Channel(s) : 2 channels
Channel positions : Front: L R
Sampling rate : 48.0 KHz
Compression mode : Lossy
Stream size : 123 MiB (3%)
Title : English Stereo
Language : English
Encoded date : UTC 2017-06-18 12:31:27
Tagged date : UTC 2017-06-18 12:31:34
Audio #3
ID : 4
Format : AC-3
Format/Info : Audio Coding 3
Mode extension : CM (complete main)
Format settings, Endianness : Big
Codec ID : ac-3
Duration : 1h 50mn
Bit rate mode : Constant
Bit rate : 384 Kbps
Channel(s) : 6 channels
Channel positions : Front: L C R, Side: L R, LFE
Sampling rate : 48.0 KHz
Bit depth : 16 bits
Compression mode : Lossy
Stream size : 303 MiB (8%)
Title : Russian DD 5.1
Language : Russian
Encoded date : UTC 2017-06-18 12:31:27
Tagged date : UTC 2017-06-18 12:31:34
Audio #4
ID : 5
Format : AC-3
Format/Info : Audio Coding 3
Mode extension : CM (complete main)
Format settings, Endianness : Big
Codec ID : ac-3
Duration : 1h 50mn
Bit rate mode : Constant
Bit rate : 384 Kbps
Channel(s) : 6 channels
Channel positions : Front: L C R, Side: L R, LFE
Sampling rate : 48.0 KHz
Bit depth : 16 bits
Compression mode : Lossy
Stream size : 303 MiB (8%)
Title : English DD 5.1
Language : English
Encoded date : UTC 2017-06-18 12:31:27
Tagged date : UTC 2017-06-18 12:31:34
Menu #1
00:00:00.000 : Chapter 1
00:08:56.494 : Chapter 2
00:20:53.085 : Chapter 3
00:29:33.105 : Chapter 4
00:38:20.172 : Chapter 5
00:47:40.607 : Chapter 6
00:57:22.480 : Chapter 7
01:07:39.471 : Chapter 8
01:17:40.487 : Chapter 9
01:25:16.693 : Chapter 10
01:35:09.619 : Chapter 11
01:45:37.330 : Chapter 12
Menu #2
ID : 6
Codec ID : text
Duration : 1h 50mn
Language : English
Encoded date : UTC 2017-06-18 12:32:52
Tagged date : UTC 2017-06-18 12:32:52
00:00:00.000 : Chapter 1
00:08:56.494 : Chapter 2
00:20:53.085 : Chapter 3
00:29:33.105 : Chapter 4
00:38:20.172 : Chapter 5
00:47:40.607 : Chapter 6
00:57:22.480 : Chapter 7
01:07:39.471 : Chapter 8
01:17:40.487 : Chapter 9
01:25:16.693 : Chapter 10
01:35:09.619 : Chapter 11
01:45:37.330 : Chapter 12
Bit rate mode : VBR

Скриншоты


Размер .torrent файла 40 KB

Registered [ 2017-06-18 21:25 ] · A09317D0121F0E841BDD5D6635D6452C0961C0F7
checked
Размер файлов 3.88 GB
Инструкции / FAQКак скачать раздачуРейтинг упал ниже 0,3?Seed-бонусы за сидированиеQA по скорости скачивания

Охотник с Уолл-стрит / The Headhunter's Calling (Марк Уильямс) [2016, Драма, WEB-DL 720p]

КОММЕНТАРИИ

Likes

Аудио 1: Русский/Дублированный (iTunes), AAC / 2.0 / 160 Kbps / 48.0 KHz
Аудио 1: Английский/Оригинальная дорожка , AAC / 2.0 / 160 Kbps / 48.0 KHz
Аудио 2: Русский/Дублированный (iTunes), AC-3 / 5.1 / 384 Kbps / 48.0 KHz
Аудио 3: Английский/Оригинальная дорожка , AC-3 / 5.1 / 384 Kbps / 48.0 KHz
Точно те?
Скрины по центру. И ссылки КП и IMDB никуда не ведут и оценки вроде не соответствуют

Охотник с Уолл-стрит / The Headhunter's Calling (Марк Уильямс) [2016, Драма, WEB-DL 720p]

      

Comments

 
Heads necessary to send messages to enable JavaScript

Less time searching
more time doing

Toomac has more than 1500 other beautifully designed tools in one collection. No ads, no in-app purchases, no paying for updates. Just apps, fully unlocked. Toomac is $9.99/month. You get an entire week free to try it out.


Get started Free trial for 7 days



Powered by TorrentPier II © Meithar, TorrentPier II Team