Логан / Logan (Джеймс Мэнголд) [2017 г., Фантастика, Боевик, Триллер, Драма, WEB-DL 1080p-LQ]

КОММЕНТАРИИ

Likes




Логан / Logan

«Его время пришло»

8.4 / 10 7.56 / 10

-
Год выпуска: 2017
Производство: США / Donners' Company, Kinberg Genre, Marvel Entertainment
Жанр: Фантастика, Боевик, Триллер, Драма
Продолжительность: 02:17:45
Перевод: Профессиональный многоголосый \ Авторский \ Оригинал
Субтитры: Английские
Реклама: Отсутствует
Возраст: 18+ (зрителям, достигшим 18 лет. запрещено для детей)
Рейтинг MPAA: R (лицам до 17 лет обязательно присутствие взрослого)
Дата мировой премьеры: 17 февраля 2017
Дата российской премьеры: 2 марта 2017, «Двадцатый Век Фокс СНГ»
-
Режисер
Джеймс Мэнголд
Продюсер
Джозеф М. Карачиоло мл., Саймон Кинберг, Стэн Ли
Актеры
Хью Джекман, Патрик Стюарт, Дафни Кин, Бойд Холбрук, Стивен Мерчант, Элизабет Родригес, Ричард Э. Грант, Эрик Ла Салль, Элиз Нил, Куинси Фаус
Описание
В недалеком будущем уставший от жизни Логан заботится о больном профессоре Икс, который прячется неподалеку от мексиканской границы. Но Логан больше не сможет скрывать свое прошлое, когда встретится с юным мутантом, которого преследуют темные силы.

-Качество: WEB-DL 1080p-LQ
Формат: M4V
Видео: AVC, 1914x800 (2.35:1), 24.000 fps, 4 552 Kbps, 25 fps
Исходник: nnmclub
Аудио 1: AAC, 2 ch, 192 kbps, 48 kHz | MVO Omskbird Records | Русский
Аудио 1: AAC, 2 ch, 192 kbps, 48 kHz | AVO Чадов | Русский
Аудио 2: AAC, 2 ch, 192 kbps, 48 kHz | Original | Английский
Аудио 3: AC3, 6 ch, 384 kbps, 48 kHz, | Original | Английский

iTunes Meta Tags

Название фильма                          : Логан
Исполнитель                              : James Mangold
Композитор                               : Cliff Martinez
Режиссёр                                 : James Mangold
Исполнитель                              : Hugh Jackman / Patrick Stewart / Dafne Keen / Boyd Holbrook / Stephen Merchant / Elizabeth Rodriguez / Richard E. Grant / Eriq La Salle / Elise Neal / Reynaldo Gallegos / Krzysztof Soszynski / Stephen Dunlevy / Alison Fernandez / Lennie Loftin / Doris Morgado / David Kallaway / Han Soto / Frank Gallegos / James Moses Black / Dave Davis / Julia Holt / Lauren Gros / Juan Gaspard / Lara Grice / Lizeth Hutchings / Mary Peyton Stewart / Mark Ashworth / Justin Lebrun / Christopher Heskey / Gregory Paul Valdez / Quincy Fouse / Jayson Genao / Hannah Westerfield / Bryant Tardy / Ashlyn Casalegno / Salef Celiz / Jaden Francis / Michael Love Toliver / Katie Anne Mitchell / Rebecca Chulew / Ted Ferguson / Michael J. Bradford / Erica Austin / Edgar Leza / Daymond C. Roman
Сценарист                                : David James Kelly / James Mangold / Michael Green / Scott Frank / James Mangold / Roy Thomas / Len Wein / John Romita / Sr. / Christopher Yost / Craig Kyle / Chris Claremont / Stan Lee
Продюсер                                 : Lauren Shuler Donner / Hutch Parker / Simon Kinberg
Исполнительный продюсер                  : Stan Lee, James Mangold, Josh McLaglen, Joseph M. Caracciolo Jr.
Студия-производитель                     : Twentieth Century Fox Film Corporation, Donners' Company, Marvel Entertainment, TSG Entertainment
Жанр                                     : боевик, драма, фантастика
Тип содержимого                          : Short Film
Описание                                 : В недалеком будущем уставший от жизни Логан заботится о больном профессоре Икс, который прячется неподалеку от мексиканской границы. Но Логан больше не сможет скрывать свое прошлое, когда встретится с юным мутантом, которого преследуют темные силы.
Дата записи                              : 2017-02-28
Дата кодирования                         : UTC 2017-05-20 11:04:51
Дата пометки                             : UTC 2017-05-20 11:17:13
Обложка                                  : Yes
LongDescription                          : В недалеком будущем уставший от жизни Логан заботится о больном профессоре Икс, который прячется неподалеку от мексиканской границы. Но Логан больше не сможет скрывать свое прошлое, когда встретится с юным мутантом, которого преследуют темные силы.
ContentRating                            : mpaa|R|400|

MI

Общее
Полное имя                               : /Volumes/CLOUD II/___inmac_films2/Логан (2017) 1080p.m4v
Формат                                   : MPEG-4
Идентификатор кодека                     : M4V  (M4V /M4A /mp42/isom)
Размер файла                             : 5,32 Гбайт
Продолжительность                        : 2 ч. 17 м.
Режим общего битрейта                    : Переменный
Общий поток                              : 5526 Кбит/сек
Название фильма                          : Логан
Исполнитель                              : James Mangold
Композитор                               : Cliff Martinez
Режиссёр                                 : James Mangold
Исполнитель                              : Hugh Jackman / Patrick Stewart / Dafne Keen / Boyd Holbrook / Stephen Merchant / Elizabeth Rodriguez / Richard E. Grant / Eriq La Salle / Elise Neal / Reynaldo Gallegos / Krzysztof Soszynski / Stephen Dunlevy / Alison Fernandez / Lennie Loftin / Doris Morgado / David Kallaway / Han Soto / Frank Gallegos / James Moses Black / Dave Davis / Julia Holt / Lauren Gros / Juan Gaspard / Lara Grice / Lizeth Hutchings / Mary Peyton Stewart / Mark Ashworth / Justin Lebrun / Christopher Heskey / Gregory Paul Valdez / Quincy Fouse / Jayson Genao / Hannah Westerfield / Bryant Tardy / Ashlyn Casalegno / Salef Celiz / Jaden Francis / Michael Love Toliver / Katie Anne Mitchell / Rebecca Chulew / Ted Ferguson / Michael J. Bradford / Erica Austin / Edgar Leza / Daymond C. Roman
Сценарист                                : David James Kelly / James Mangold / Michael Green / Scott Frank / James Mangold / Roy Thomas / Len Wein / John Romita / Sr. / Christopher Yost / Craig Kyle / Chris Claremont / Stan Lee
Продюсер                                 : Lauren Shuler Donner / Hutch Parker / Simon Kinberg
Исполнительный продюсер                  : Stan Lee, James Mangold, Josh McLaglen, Joseph M. Caracciolo Jr.
Студия-производитель                     : Twentieth Century Fox Film Corporation, Donners' Company, Marvel Entertainment, TSG Entertainment
Жанр                                     : боевик, драма, фантастика
Тип содержимого                          : Short Film
Описание                                 : В недалеком будущем уставший от жизни Логан заботится о больном профессоре Икс, который прячется неподалеку от мексиканской границы. Но Логан больше не сможет скрывать свое прошлое, когда встретится с юным мутантом, которого преследуют темные силы.
Дата записи                              : 2017-02-28
Дата кодирования                         : UTC 2017-05-20 11:04:51
Дата пометки                             : UTC 2017-05-20 11:17:13
Обложка                                  : Yes
LongDescription                          : В недалеком будущем уставший от жизни Логан заботится о больном профессоре Икс, который прячется неподалеку от мексиканской границы. Но Логан больше не сможет скрывать свое прошлое, когда встретится с юным мутантом, которого преследуют темные силы.
ContentRating                            : mpaa|R|400|
Видео #1
Идентификатор                            : 1
Формат                                   : AVC
Формат/Информация                        : Advanced Video Codec
Профиль формата                          : [email protected]
Параметр CABAC формата                   : Да
Параметр ReFrames формата                : 5 кадров
Идентификатор кодека                     : avc1
Идентификатор кодека/Информация          : Advanced Video Coding
Продолжительность                        : 2 ч. 17 м.
Битрейт                                  : 4552 Кбит/сек
Ширина                                   : 1914 пикселей
Высота                                   : 800 пикселей
Соотношение сторон                       : 2,40:1
Режим частоты кадров                     : Переменный
Частота кадров                           : 23,976 кадра/сек
Минимальная частота кадров               : 22,727 кадра/сек
Максимальная частота кадров              : 25,000 кадров/сек
Цветовое пространство                    : YUV
Субдискретизация насыщенности            : 4:2:0
Битовая глубина                          : 8 бит
Тип развёртки                            : Прогрессивная
Бит/(Пиксели*Кадры)                      : 0.124
Размер потока                            : 4,38 Гбайт (82%)
Encoding settings: cabac=1 / ref=5 / deblock=1:-3:-3 / analyse=0x3:0x133 / me=umh / subme=11 / psy=1 / fade_compensate=0.00 / psy_rd=1.10:0.00 / mixed_ref=1 / me_range=32 / chroma_me=1 / trellis=2 / 8x8dct=1 / cqm=0 / deadzone=21,11 / fast_pskip=0 / chroma_qp_offset=-2 / threads=12 / lookahead_threads=2 / sliced_threads=0 / nr=0 / decimate=0 / interlaced=0 / bluray_compat=0 / constrained_intra=0 / bframes=8 / b_pyramid=2 / b_adapt=2 / b_bias=0 / direct=3 / weightb=1 / open_gop=0 / weightp=2 / keyint=240 / keyint_min=2 / scenecut=40 / intra_refresh=0 / rc_lookahead=0 / rc=2pass / mbtree=0 / bitrate=7200 / ratetol=1.0 / qcomp=0.70 / qpmin=0 / qpmax=69 / qpstep=4 / cplxblur=20.0 / qblur=0.5 / vbv_maxrate=50000 / vbv_bufsize=30000 / nal_hrd=none / filler=0 / ip_ratio=1.25 / pb_ratio=1.20 / aq=3:0.90
Язык                                     : English
Дата кодирования                         : UTC 2017-05-20 11:04:51
Дата пометки                             : UTC 2017-05-20 11:16:29
Цветовой диапазон                        : Limited
Основные цвета                           : BT.709
Характеристики трансфера                 : BT.709
Коэффициенты матрицы                     : BT.709
Menus                                    : 9,10
Видео #2
Идентификатор                            : 10
Формат                                   : JPEG
Идентификатор кодека                     : jpeg
Продолжительность                        : 2 ч. 17 м.
Вид битрейта                             : Переменный
Битрейт                                  : 1388 бит/сек
Ширина                                   : 640 пикселей
Высота                                   : 267 пикселей
Соотношение сторон                       : 2,40:1
Режим частоты кадров                     : Переменный
Частота кадров                           : 0,005 кадр/сек
Минимальная частота кадров               : 0,003 кадр/сек
Максимальная частота кадров              : 0,011 кадр/сек
Цветовое пространство                    : YUV
Субдискретизация насыщенности            : 4:2:0
Битовая глубина                          : 8 бит
Метод сжатия                             : С потерями
Бит/(Пиксели*Кадры)                      : 1.625
Размер потока                            : 1,32 Мбайт (0%)
Язык                                     : English
Default                                  : Нет
Дата кодирования                         : UTC 2017-05-20 11:16:49
Дата пометки                             : UTC 2017-05-20 11:16:50
Menu For                                 : 1
Аудио #1
Идентификатор                            : 2
Формат                                   : AAC
Формат/Информация                        : Advanced Audio Codec
Профиль формата                          : LC
Идентификатор кодека                     : 40
Продолжительность                        : 2 ч. 17 м.
Вид битрейта                             : Переменный
Битрейт                                  : 192 Кбит/сек
Максимальный битрейт                     : 272 Кбит/сек
Каналы                                   : 2 канала
Расположение каналов                     : Front: L R
Частота                                  : 48,0 КГц
Частота кадров                           : 46,875 кадров/сек (1024 spf)
Метод сжатия                             : С потерями
Размер потока                            : 193 Мбайт (4%)
Язык                                     : Russian
Default                                  : Да
Alternate group                          : 1
Дата кодирования                         : UTC 2017-05-20 11:04:51
Дата пометки                             : UTC 2017-05-20 11:16:29
Аудио #2
Идентификатор                            : 4
Формат                                   : AAC
Формат/Информация                        : Advanced Audio Codec
Профиль формата                          : LC
Идентификатор кодека                     : 40
Продолжительность                        : 2 ч. 17 м.
Вид битрейта                             : Переменный
Битрейт                                  : 192 Кбит/сек
Максимальный битрейт                     : 272 Кбит/сек
Каналы                                   : 2 канала
Расположение каналов                     : Front: L R
Частота                                  : 48,0 КГц
Частота кадров                           : 46,875 кадров/сек (1024 spf)
Метод сжатия                             : С потерями
Размер потока                            : 186 Мбайт (3%)
Язык                                     : Russian
Default                                  : Нет
Alternate group                          : 1
Дата кодирования                         : UTC 2017-05-20 11:04:51
Дата пометки                             : UTC 2017-05-20 11:16:29
Аудио #3
Идентификатор                            : 6
Формат                                   : AAC
Формат/Информация                        : Advanced Audio Codec
Профиль формата                          : LC
Идентификатор кодека                     : 40
Продолжительность                        : 2 ч. 17 м.
Вид битрейта                             : Переменный
Битрейт                                  : 192 Кбит/сек
Максимальный битрейт                     : 332 Кбит/сек
Каналы                                   : 2 канала
Расположение каналов                     : Front: L R
Частота                                  : 48,0 КГц
Частота кадров                           : 46,875 кадров/сек (1024 spf)
Метод сжатия                             : С потерями
Размер потока                            : 192 Мбайт (4%)
Язык                                     : English
Default                                  : Нет
Alternate group                          : 1
Дата кодирования                         : UTC 2017-05-20 11:04:51
Дата пометки                             : UTC 2017-05-20 11:16:29
Fallback From                            : 7
Аудио #4
Идентификатор                            : 7
Формат                                   : AC-3
Формат/Информация                        : Audio Coding 3
Параметр Endianness формата              : Big
Идентификатор кодека                     : ac-3
Продолжительность                        : 2 ч. 17 м.
Вид битрейта                             : Постоянный
Битрейт                                  : 384 Кбит/сек
Каналы                                   : 6 каналов
Расположение каналов                     : Front: L C R, Side: L R, LFE
Частота                                  : 48,0 КГц
Частота кадров                           : 31,250 кадров/сек (1536 spf)
Битовая глубина                          : 16 бит
Метод сжатия                             : С потерями
Размер потока                            : 377 Мбайт (7%)
Язык                                     : English
Service kind                             : Complete Main
Default                                  : Нет
Alternate group                          : 1
Дата кодирования                         : UTC 2017-05-20 11:04:51
Дата пометки                             : UTC 2017-05-20 11:16:29
Fallback To                              : 6
Текст
Идентификатор                            : 8
Формат                                   : Timed Text
Режим смешивания                         : sbtl
Идентификатор кодека                     : tx3g
Продолжительность                        : 2 ч. 17 м.
Вид битрейта                             : Переменный
Битрейт                                  : 47 бит/сек
Размер потока                            : 47,3 Кбайт (0%)
Язык                                     : English
Default                                  : Да
Forced                                   : Нет
Alternate group                          : 2
Дата кодирования                         : UTC 2017-05-20 11:04:51
Дата пометки                             : UTC 2017-05-20 11:16:29
Меню
Идентификатор                            : 9
Идентификатор кодека                     : text
Продолжительность                        : 2 ч. 17 м.
Язык                                     : English
Дата кодирования                         : UTC 2017-05-20 11:16:30
Дата пометки                             : UTC 2017-05-20 11:16:30
Вид битрейта                             : CBR
Menu For                                 : 1
00:00:00.000                             : Chapter 01
00:05:33.958                             : Chapter 02
00:09:17.389                             : Chapter 03
00:11:39.988                             : Chapter 04
00:16:22.062                             : Chapter 05
00:20:10.498                             : Chapter 06
00:24:25.544                             : Chapter 07
00:26:10.732                             : Chapter 08
00:30:12.140                             : Chapter 09
00:31:57.954                             : Chapter 10
00:34:55.715                             : Chapter 11
00:39:52.260                             : Chapter 12
00:42:54.401                             : Chapter 13
00:45:02.654                             : Chapter 14
00:47:52.240                             : Chapter 15
00:49:38.387                             : Chapter 16
00:52:13.250                             : Chapter 17
00:54:29.344                             : Chapter 18
00:57:43.037                             : Chapter 19
01:00:09.224                             : Chapter 20
01:03:52.655                             : Chapter 21
01:06:54.336                             : Chapter 22
01:09:53.598                             : Chapter 23
01:13:14.715                             : Chapter 24
01:18:42.417                             : Chapter 25
01:21:49.729                             : Chapter 26
01:25:51.011                             : Chapter 27
01:28:37.635                             : Chapter 28
01:32:40.252                             : Chapter 29
01:35:28.545                             : Chapter 30
01:41:02.253                             : Chapter 31
01:43:38.701                             : Chapter 32
01:49:37.810                             : Chapter 33
01:54:19.383                             : Chapter 34
01:56:59.251                             : Chapter 35
01:59:19.224                             : Chapter 36
02:01:13.254                             : Chapter 37
02:05:08.447                             : Chapter 38
02:06:39.371                             : Chapter 39
02:11:06.679                             : Chapter 40

Скриншоты


Размер .torrent файла 54 KB

Registered [ 2017-06-16 21:22 ] · 200F16CBD19FF42F979A4DCA57EFA791193085F1
checked
Размер файлов 5.32 GB
Инструкции / FAQКак скачать раздачуРейтинг упал ниже 0,3?Seed-бонусы за сидированиеQA по скорости скачивания

Логан / Logan (Джеймс Мэнголд) [2017 г., Фантастика, Боевик, Триллер, Драма, WEB-DL 1080p-LQ]

КОММЕНТАРИИ

Likes

прикольно

Логан / Logan (Джеймс Мэнголд) [2017 г., Фантастика, Боевик, Триллер, Драма, WEB-DL 1080p-LQ]

КОММЕНТАРИИ

Likes

Есть такое!

Логан / Logan (Джеймс Мэнголд) [2017 г., Фантастика, Боевик, Триллер, Драма, WEB-DL 1080p-LQ]

КОММЕНТАРИИ

Likes

Топик был перенесен из форума Тестовый раздел в форум Фильмы HD для Apple TV
Avo

Логан / Logan (Джеймс Мэнголд) [2017 г., Фантастика, Боевик, Триллер, Драма, WEB-DL 1080p-LQ]

      

Comments

 
Heads necessary to send messages to enable JavaScript

Less time searching
more time doing

Toomac has more than 1500 other beautifully designed tools in one collection. No ads, no in-app purchases, no paying for updates. Just apps, fully unlocked. Toomac is $9.99/month. You get an entire week free to try it out.


Get started Free trial for 7 days



Powered by TorrentPier II © Meithar, TorrentPier II Team