Фарго / Fargo – 3 сезон (7 серий из 10) [2017 г., Триллер, драма, криминал, WEB-DL 1080-LQ, LostFilm] (Обновляемая)

КОММЕНТАРИИ

Likes




Фарго / Fargo

«Aw jeez, here we go again» / Сезон 3 (7 серий из 10)


-
Год выпуска: 2017
Производство: США / MGM Television, FX Productions, 26 Keys Productions
Жанр: Триллер, драма, криминал
Продолжительность: ~01:00:00 серия
Перевод: Многоголосый закадровый, профессиональный | LostFilm
Субтитры: Английские
Реклама: Отсутствует
Возраст: 18+ (зрителям, достигшим 18 лет)

-
Режиссер: Майкл Аппендаль, Рэндолл Айнхорн, Адам Бернштейн
Сценарий: Моника Белецки, Стив Блэкман, Роберт Де Лаурентис, ...
Продюсер: Джон Камерон, Итан Коэн, Джоэл Коэн, ...
Оператор: Дана Гонсалес, Крейг Роблески, Мэттью Дж. Ллойд
Композитор: Джефф Руссо
Художник: Уоррен Алан Янг, Элизабет Уильямс, Джон Блэкки, ...
Монтаж: Режис Кимбл, Скип Макдональд, Бриджет Дернфорд
В ролях
Эллисон Толман, Колин Хэнкс, Мартин Фриман, Билли Боб Торнтон, Кирстен Данст, Юэн МакГрегор, Патрик Уилсон, Кэрри Кун, Джесси Племонс, Мэри Элизабет Уинстэд и др.

Описание
В центре сюжета третьего сезона сериала – Эммит Стасси, король парковок штата Миннесота. Красивый, успешный магнат недвижимости и примерный семьянин, Эммит представляет собой идеал Американского успеха. А вот его младший брат Рэй является полной противоположностью: лысеющий толстопуз, который достиг своего пика в школе, и сейчас его жизнь идет на спад. Он работает офицером по надзору за условно-досрочно освобожденными и во всех своих неудачах винит своего старшего братца.
-

Качество: WEB-DL 1080p-LQ
Исходник: LostFilm
Формат: M4V
Видео: H.264/AVC, 1920x952, ~4583 kbps, 24 fps
Аудио 1: AAC / 48,0 kHz / 2 ch / 192 kbps / MVO / Русский
Аудио 2: AAC / 48,0 kHz / 2 ch / 192 kbps / Original / Английский

Внимание! Раздача ведётся путём добавления новых серий


Внимание! Раздача ведётся путём добавления новых серий; при каждом добавлении создаётся новый торрент.
Чтобы начать докачку новой серии, пользователям необходимо сделать следующее:
1. Остановить скачивание;
2. Удалить старый торрент у себя из клиента (старые серии удалять не надо);
3. Скачать новый торрент и запустить его у себя в клиенте вместо старого, при этом указать клиенту путь в старую папку куда и должно происходить скачивание новых серий. Ваш клиент при этом должен произвести хеширование (проверку) старой папки и будет докачивать только те серии, которых у вас ещё нет. Старые серии при этом не удаляются, а продолжают раздаваться! Eсли вы уже удалили старые серии, то предотвратить повторную закачку старых серий можно, отжав галочку в соответствующих местах при запуске нового торрента.

Список серий


  • 01. Закон пустого пространства
  • 02. Принцип ограниченного выбора
  • 03. Закон непротиворечивости
  • 04. Проблема бутылочного горлышка
  • 05. Дом специального назначения
  • 06. Лорд Без Милосердия
  • 07. Закон неизбежности

Скриншоты


iTunes Meta Tags

Collection                               : Фарго
Season                                   : 3
Album                                    : Фарго, Season 3
Album/Performer                          : Фарго
Performer                                : Фарго
Director                                 : Noah Hawley
Actor                                    : Martin Freeman / Billy Bob Thornton / Allison Tolman / Olivia Sandoval / David Thewlis / Shea Whigham / Ewan McGregor (II) / Michael Stuhlbarg / Mary Elizabeth Winstead / Carrie Coon / Ewan McGregor / Angus Sampson / Jeffrey Donovan / Bokeem Woodbine / Zahn McClarnon / Ted Danson / Rachel Keller / Patrick Wilson / Nick Offerman / Kirsten Dunst / Kieran Culkin / Jesse Plemons / Jean Smart / Cristin Milioti / Allan Dobrescu / Keith Carradine / Joey King / Kate Walsh / Oliver Platt / Russell Harvard / Adam Goldberg / Colin Hanks / Glenn Howerton / Bob Odenkirk
Screenplay by                            : Noah Hawley
Genre                                    : Crime, Drama, Thriller
ContentType                              : TV Show
Description                              : Небольшая конкуренция между двумя братьями обостряется и приносит хаос в маленькое сообщество Миннесоты. / Лорн Малво, странствующий как перекати-поле, заезжает в небольшой городок в штате Миннесота. Он начинает воздействовать на местное население угрозами и насилием, а также использует страхового агента Лестера Найгарда…
Cover                                    : Yes
TVNetworkName                            : FX (US)
Part_ID                                  : 301
ContentRating                            : us-tv|TV-MA|600|
XID: Apple:vendor_id:2014, (2 сезона)-767379
Sort Name: Fargo

MI

General
Complete name                            : /Volumes/CLOUD II/___inmac_films2/Fargo Season 3 (2017) 720p ListFilm/Fargo.S03E01.m4v
Format                                   : MPEG-4
Codec ID                                 : M4V  (M4V /M4A /mp42/isom)
File size                                : 2.49 GiB
Duration                                 : 1h 6mn
Overall bit rate mode                    : Variable
Overall bit rate                         : 5 366 Kbps
Collection                               : Фарго
Season                                   : 3
Album                                    : Фарго, Season 3
Album/Performer                          : Фарго
Part                                     : 1
Track name                               : Закон пустого пространства
Track name/Position                      : 1
Performer                                : Фарго
Director                                 : Noah Hawley
Actor                                    : Martin Freeman / Billy Bob Thornton / Allison Tolman / Olivia Sandoval / David Thewlis / Shea Whigham / Ewan McGregor (II) / Michael Stuhlbarg / Mary Elizabeth Winstead / Carrie Coon / Ewan McGregor / Angus Sampson / Jeffrey Donovan / Bokeem Woodbine / Zahn McClarnon / Ted Danson / Rachel Keller / Patrick Wilson / Nick Offerman / Kirsten Dunst / Kieran Culkin / Jesse Plemons / Jean Smart / Cristin Milioti / Allan Dobrescu / Keith Carradine / Joey King / Kate Walsh / Oliver Platt / Russell Harvard / Adam Goldberg / Colin Hanks / Glenn Howerton / Bob Odenkirk
Screenplay by                            : Noah Hawley
Genre                                    : Crime, Drama, Thriller
ContentType                              : TV Show
Description                              : Небольшая конкуренция между двумя братьями обостряется и приносит хаос в маленькое сообщество Миннесоты. / Лорн Малво, странствующий как перекати-поле, заезжает в небольшой городок в штате Миннесота. Он начинает воздействовать на местное население угрозами и насилием, а также использует страхового агента Лестера Найгарда…
Recorded date                            : 2017-04-19
Encoded date                             : UTC 2017-04-24 18:54:24
Tagged date                              : UTC 2017-04-24 18:58:02
Cover                                    : Yes
TVNetworkName                            : FX (US)
Part_ID                                  : 301
LongDescription                          : Небольшая конкуренция между двумя братьями обостряется и приносит хаос в маленькое сообщество Миннесоты.
ContentRating                            : us-tv|TV-MA|600|
Video
ID                                       : 1
Format                                   : AVC
Format/Info                              : Advanced Video Codec
Format profile                           : [email protected]
Format settings, CABAC                   : Yes
Format settings, ReFrames                : 4 frames
Codec ID                                 : avc1
Codec ID/Info                            : Advanced Video Coding
Duration                                 : 1h 6mn
Bit rate                                 : 4 583 Kbps
Width                                    : 1 920 pixels
Height                                   : 952 pixels
Display aspect ratio                     : 2.017
Frame rate mode                          : Variable
Frame rate                               : 23.976 (24000/1001) fps
Minimum frame rate                       : 23.810 fps
Maximum frame rate                       : 24.390 fps
Color space                              : YUV
Chroma subsampling                       : 4:2:0
Bit depth                                : 8 bits
Scan type                                : Progressive
Bits/(Pixel*Frame)                       : 0.105
Stream size                              : 2.13 GiB (85%)
Encoding settings: cabac=1 / ref=4 / deblock=1:-3:-3 / analyse=0x3:0x133 / me=umh / subme=11 / psy=1 / fade_compensate=0.00 / psy_rd=1.10:0.00 / mixed_ref=1 / me_range=32 / chroma_me=1 / trellis=2 / 8x8dct=1 / cqm=0 / deadzone=21,11 / fast_pskip=0 / chroma_qp_offset=-2 / threads=12 / lookahead_threads=2 / sliced_threads=0 / nr=0 / decimate=0 / interlaced=0 / bluray_compat=0 / constrained_intra=0 / bframes=8 / b_pyramid=2 / b_adapt=2 / b_bias=0 / direct=3 / weightb=1 / open_gop=0 / weightp=2 / keyint=240 / keyint_min=2 / scenecut=40 / intra_refresh=0 / rc_lookahead=0 / rc=2pass / mbtree=0 / bitrate=7200 / ratetol=1.0 / qcomp=0.70 / qpmin=0 / qpmax=69 / qpstep=4 / cplxblur=20.0 / qblur=0.5 / vbv_maxrate=50000 / vbv_bufsize=30000 / nal_hrd=none / filler=0 / ip_ratio=1.25 / pb_ratio=1.20 / aq=3:0.90
Language                                 : English
Encoded date                             : UTC 2017-04-24 18:54:24
Tagged date                              : UTC 2017-04-24 18:58:02
Color range                              : Limited
Color primaries                          : BT.709
Transfer characteristics                 : BT.709
Matrix coefficients                      : BT.709
Audio #1
ID                                       : 2
Format                                   : AAC
Format/Info                              : Advanced Audio Codec
Format profile                           : LC
Codec ID                                 : 40
Duration                                 : 1h 6mn
Bit rate mode                            : Variable
Bit rate                                 : 192 Kbps
Maximum bit rate                         : 295 Kbps
Channel(s)                               : 2 channels
Channel positions                        : Front: L R
Sampling rate                            : 48.0 KHz
Frame rate                               : 46.875 fps (1024 spf)
Compression mode                         : Lossy
Stream size                              : 92.7 MiB (4%)
Language                                 : Russian
Default                                  : Yes
Alternate group                          : 1
Encoded date                             : UTC 2017-04-24 18:54:24
Tagged date                              : UTC 2017-04-24 18:58:02
Audio #2
ID                                       : 3
Format                                   : AAC
Format/Info                              : Advanced Audio Codec
Format profile                           : LC
Codec ID                                 : 40
Duration                                 : 1h 6mn
Bit rate mode                            : Variable
Bit rate                                 : 192 Kbps
Maximum bit rate                         : 304 Kbps
Channel(s)                               : 2 channels
Channel positions                        : Front: L R
Sampling rate                            : 48.0 KHz
Frame rate                               : 46.875 fps (1024 spf)
Compression mode                         : Lossy
Stream size                              : 93.1 MiB (4%)
Language                                 : English
Default                                  : No
Alternate group                          : 1
Encoded date                             : UTC 2017-04-24 18:54:24
Tagged date                              : UTC 2017-04-24 18:58:02
Fallback From                            : 4
Audio #3
ID                                       : 4
Format                                   : AC-3
Format/Info                              : Audio Coding 3
Format settings, Endianness              : Big
Codec ID                                 : ac-3
Duration                                 : 1h 6mn
Bit rate mode                            : Constant
Bit rate                                 : 384 Kbps
Channel(s)                               : 6 channels
Channel positions                        : Front: L C R, Side: L R, LFE
Sampling rate                            : 48.0 KHz
Frame rate                               : 31.250 fps (1536 spf)
Bit depth                                : 16 bits
Compression mode                         : Lossy
Stream size                              : 183 MiB (7%)
Language                                 : English
Service kind                             : Complete Main
Default                                  : No
Alternate group                          : 1
Encoded date                             : UTC 2017-04-24 18:54:24
Tagged date                              : UTC 2017-04-24 18:58:02
Fallback To                              : 3
Text
ID                                       : 5
Format                                   : Timed Text
Muxing mode                              : sbtl
Codec ID                                 : tx3g
Duration                                 : 1h 6mn
Bit rate mode                            : Variable
Bit rate                                 : 48 bps
Stream size                              : 23.4 KiB (0%)
Language                                 : English
Default                                  : Yes
Forced                                   : No
Alternate group                          : 2
Encoded date                             : UTC 2017-04-24 18:54:24
Tagged date                              : UTC 2017-04-24 18:58:02




Less time searching
more time doing

Toomac has more than 1500 other beautifully designed tools in one collection. No ads, no in-app purchases, no paying for updates. Just apps, fully unlocked. Toomac is $9.99/month. You get an entire week free to try it out.


Get started Free trial for 7 days.

Фарго / Fargo – 3 сезон (7 серий из 10) [2017 г., Триллер, драма, криминал, WEB-DL 1080-LQ, LostFilm] (Обновляемая)

Powered by TorrentPier II © Meithar, TorrentPier II Team