Побег: Продолжение / Prison Break: Sequel (Сезон 5, серии 1-9 из 9) [2017 г., Боевик, триллер, драма, криминал, детектив, WEB-DL 1080p-LQ]

КОММЕНТАРИИ

Likes




Побег: Продолжение / Prison Break: Sequel

«The breakout return» / Сезон 5, серии 1-9 из 9

9.3 / 10 7.6 / 10

-
Год выпуска: 2017
Производство: США, 20th Century Fox Television, Adelstein-Parouse Productions, Original Film
Жанр: Боевик, триллер, драма, криминал, детектив
Продолжительность: ~00:45:00 серия
Перевод: Многоголосый закадровый, профессиональный | Fox
Субтитры: Английские (вшитые, отключаемые)
Возраст: 16+ (зрителям, достигшим 16 лет)
Дата мировой премьеры: 4 апреля 2017
Дата премьеры в РФ: 5 апреля 2017

-
Режисер: Нельсон МакКормик
Сценарий: Пол Шойринг, Jennifer Iwueke
Продюсер: Марти Адельштейн, Майкл Хоровиц, Нельсон МакКормик
Актеры
Вентворт Миллер, Доминик Пёрселл, Рокмонд Данбар, Роберт Неппер, Амори Ноласко, Сара Уэйн Кэллис, Марина Бенедикт, Кристиан Майкл Купер, Марк Фойерстин, Стив Музакис и др.
Описание
Продолжение популярного американского драматического сериала «Побег».
Действие разворачивается спустя 7 лет после событий, произошедших в 4 сезоне сериала «Побег». Все это время главный герой сериала считался умершим. Так продолжалось бы и дальше, если бы его давний знакомый Теодор Бэгвелл по прозвищу «Ти-Бэг» не обнаружил интересный снимок, доказывающий, что Майкл все это время был жив. Узнав об этом, возлюбленная Майкла Сара Танкреди и его брат Линкольн Барроуз решают выяснить, где находится Майкл. Поиски приводят их в тюрьму Йемена. Герои решают вытащить Майкла из-за решетки, как он сам делал уже не раз.

-Качество: WEB-DL 1080p-LQ
Формат: M4V
Видео: AVC, 1916x1076 (16:9), ~5350 kbps, 25 fps
Исходник: nnmclub
Аудио 1: AAС, 48,0 kHz, 2 ch, 186 kbps | MVO | Русский
Аудио 2: AAС, 48,0 kHz, 2 ch, 198 kbps | Original | Английский
Аудио 3: AC3, 48,0 kHz, 2 ch, 192 kbps | MVO | Русский
Аудио 4: AC3, 48,0 kHz, 6 ch, 384 kbps | Original | Английский

Внимание! Раздача ведётся путём добавления новых серий


Внимание! Раздача ведётся путём добавления новых серий; при каждом добавлении создаётся новый торрент.
  • Чтобы начать докачку новой серии, пользователям необходимо сделать следующее:
  • Остановить скачивание;
  • Удалить старый торрент у себя из клиента (старые серии удалять не надо);
  • Скачать новый торрент и запустить его у себя в клиенте вместо старого, при этом указать клиенту путь в старую папку куда и должно происходить скачивание новых серий. Ваш клиент при этом должен произвести хеширование (проверку) старой папки и будет докачивать только те серии, которых у вас ещё нет. Старые серии при этом не удаляются, а продолжают раздаваться! Eсли вы уже удалили старые серии, то предотвратить повторную закачку старых серий можно, отжав галочку в соответствующих местах при запуске нового торрента.

Список серий


01. Ogygia / Огиджа
02. Kaniel Outis / Каниэль Аутис
03. The Liar / Лжец
04. The Prisoner's Dilemma / Дилемма Заключенного
05. Contingency / Непредвиденные обстоятельства
06. Phaeacia / Феакия
07. Wine-Dark Sea / Тёмное море
08. Progeny / Потомство
09. Behind the Eyes / За глаза

iTunes Meta Tags

Name: Prison Break: Sequel
Artist: Нельсон МакКормик, Майя Врвило, Гай Ферленд
Release Date: 2017-03-30T08:00:00Z
Description: В руки Ти-Бэга попадает снимок, который доказывает, что Майкл Скофилд, считавшийся погибшим вот уже семь лет, все это время был жив. Ти-Бэг сообщает об этом Линкольну, и тот объединяется со старыми друзьями, чтобы найти брата. Поиски приводят их в тюрьму Йемена. Герои решают вытащить Майкла из-за решетки и планируют масштабный побег.
Long Description: В руки Ти-Бэга попадает снимок, который доказывает, что Майкл Скофилд, считавшийся погибшим вот уже семь лет, все это время был жив. Ти-Бэг сообщает об этом Линкольну, и тот объединяется со старыми друзьями, чтобы найти брата. Поиски приводят их в тюрьму Йемена. Герои решают вытащить Майкла из-за решетки и планируют масштабный побег.
Cast: Доминик Пёрселл, Вентворт Миллер, Сара Уэйн Кэллис, Рокмонд Данбар, Роберт Неппер, Амори Ноласко, Марк Фойерстин, Марина Бенедикт, Кристиан Майкл Купер, Стив Музакис
Director: Нельсон МакКормик, Майя Врвило, Гай Ферленд
Producers: Марти Адельштейн, Стив Бирс, Майкл Хоровиц
Screenwriters: Пол Шойринг, Рэйчел Абрамовитц, Джошуа Голдин
contentID: 968758
XID: Apple:vendor_id:2017, (1 сезон)-968758
Sort Name: Prison Break: Sequel

MI

General
Complete name                            : /Volumes/CLOUD/___inmac_films/___inmac_serials/Prison Break Sequel - Season 5 (2017) 1080p FOX/Prison Break.S05E01.m4v
Format                                   : MPEG-4
Codec ID                                 : M4V  (M4V /M4A /mp42/isom)
File size                                : 1.82 GiB
Duration                                 : 41mn 14s
Overall bit rate mode                    : Variable
Overall bit rate                         : 6 317 Kbps
Collection                               : Побег из тюрьмы
Season                                   : 5
Album                                    : Побег из тюрьмы, Season 5
Album/Performer                          : Побег из тюрьмы
Part                                     : 1
Track name                               : Ogygia
Track name/Position                      : 1
Performer                                : Побег из тюрьмы
Director                                 : Nelson McCormick
Actor                                    : Wentworth Miller / Dominic Purcell / Sarah Wayne Callies / Cress Williams / James Hiroyuki Liao / Lane Garrison / Patricia Wettig / Michael Rapaport / Leon Russom / Jodi Lyn O'Keefe / Robert Wisdom / Rockmond Dunbar / William Fichtner / Danay Garcia / Robert Knepper / Chris Vance / Wade Williams / Paul Adelstein / Inbar Lavi / Raphael Sbarge / Wilbur Fitzgerald / Kathleen Quinlan / Shannon Lucio / Christian Michael Cooper / Amaury Nolasco / Peter Stormare / Marshall Allman / Robin Tunney / Stacy Keach / Muse Watson / Silas Weir Mitchell / Stacy Haiduk / Amin El Gamal  / Augustus Prew / Bobby Naderi / Curtis Lum / Frank Grillo / John Heard / Kunal Sharma  / Laurence Mason / Marina Benedict / Mark Feuerstein  / Mark Feuerstein / Michael Bryan French / Michael O'Neill / Rick Yune  / Ron Yuan / Steve Mouzakis  / Tony Denison / Robert Knepper
Screenplay by                            : Paul T. Scheuring
Genre                                    : Action, Crime, Drama
ContentType                              : TV Show
Description                              : Clues surface that suggest a previously thought-to-be-dead Michael may be alive. Lincoln and Sara, Michael’s wife until he was presumed dead, reunite to engineer the series’ biggest escape ever, as three of Fox River State Penitentiary’s most notorious escapees, Sucre, T-Bag and C-Note, are pulled back into the action. / Линкольн Бэрроуз находится под стражей в тюрьме строгого режима "Фокс Ривер" в ожидании смертной казни за убийство брата вице-президента. Разумеется, он этого убийства не совершал. Поэтому его младший брат Майкл Скофилд решает спасти Линкольна и устроить побег из тюрьмы. В свое время он работал в фирме, которая занималась планированием объекта "Фокс Ривер", и знает немало интересных особенностей всех помещений...
Recorded date                            : 2017-04-04
Encoded date                             : UTC 2017-04-06 13:36:07
Tagged date                              : UTC 2017-04-06 13:37:56
Cover                                    : Yes
TVNetworkName                            : FOX (US)
Part_ID                                  : 501
LongDescription                          : Clues surface that suggest a previously thought-to-be-dead Michael may be alive. Lincoln and Sara, Michael’s wife until he was presumed dead, reunite to engineer the series’ biggest escape ever, as three of Fox River State Penitentiary’s most notorious escapees, Sucre, T-Bag and C-Note, are pulled back into the action.
ContentRating                            : us-tv|TV-14|500|
Video
ID                                       : 1
Format                                   : AVC
Format/Info                              : Advanced Video Codec
Format profile                           : [email protected]
Format settings, CABAC                   : Yes
Format settings, ReFrames                : 4 frames
Codec ID                                 : avc1
Codec ID/Info                            : Advanced Video Coding
Duration                                 : 41mn 14s
Bit rate                                 : 5 350 Kbps
Width                                    : 1 916 pixels
Height                                   : 1 076 pixels
Display aspect ratio                     : 16:9
Frame rate mode                          : Constant
Frame rate                               : 25.000 fps
Color space                              : YUV
Chroma subsampling                       : 4:2:0
Bit depth                                : 8 bits
Scan type                                : Progressive
Bits/(Pixel*Frame)                       : 0.104
Stream size                              : 1.54 GiB (85%)
Encoding settings: cabac=1 / ref=4 / deblock=1:-3:-3 / analyse=0x3:0x133 / me=umh / subme=11 / psy=1 / fade_compensate=0.00 / psy_rd=1.10:0.00 / mixed_ref=1 / me_range=32 / chroma_me=1 / trellis=2 / 8x8dct=1 / cqm=0 / deadzone=21,11 / fast_pskip=0 / chroma_qp_offset=-2 / threads=12 / lookahead_threads=2 / sliced_threads=0 / nr=0 / decimate=0 / interlaced=0 / bluray_compat=0 / constrained_intra=0 / bframes=8 / b_pyramid=2 / b_adapt=2 / b_bias=0 / direct=3 / weightb=1 / open_gop=0 / weightp=2 / keyint=240 / keyint_min=2 / scenecut=40 / intra_refresh=0 / rc_lookahead=0 / rc=2pass / mbtree=0 / bitrate=7200 / ratetol=1.0 / qcomp=0.70 / qpmin=0 / qpmax=69 / qpstep=4 / cplxblur=20.0 / qblur=0.5 / vbv_maxrate=50000 / vbv_bufsize=30000 / nal_hrd=none / filler=0 / ip_ratio=1.25 / pb_ratio=1.20 / aq=3:0.90
Encoded date                             : UTC 2017-04-06 13:36:07
Tagged date                              : UTC 2017-04-06 13:37:56
Color range                              : Limited
Color primaries                          : BT.709
Transfer characteristics                 : BT.709
Matrix coefficients                      : BT.709
Audio #1
ID                                       : 2
Format                                   : AAC
Format/Info                              : Advanced Audio Codec
Format profile                           : LC
Codec ID                                 : 40
Duration                                 : 41mn 14s
Bit rate mode                            : Variable
Bit rate                                 : 186 Kbps
Maximum bit rate                         : 250 Kbps
Channel(s)                               : 2 channels
Channel positions                        : Front: L R
Sampling rate                            : 48.0 KHz
Frame rate                               : 46.875 fps (1024 spf)
Compression mode                         : Lossy
Stream size                              : 55.0 MiB (3%)
Language                                 : Russian
Default                                  : Yes
Alternate group                          : 1
Encoded date                             : UTC 2017-04-06 13:36:07
Tagged date                              : UTC 2017-04-06 13:37:56
Fallback From                            : 3
Audio #2
ID                                       : 3
Format                                   : AC-3
Format/Info                              : Audio Coding 3
Format settings, Endianness              : Big
Codec ID                                 : ac-3
Duration                                 : 41mn 14s
Bit rate mode                            : Constant
Bit rate                                 : 192 Kbps
Channel(s)                               : 2 channels
Channel positions                        : Front: L R
Sampling rate                            : 48.0 KHz
Frame rate                               : 31.250 fps (1536 spf)
Bit depth                                : 16 bits
Compression mode                         : Lossy
Stream size                              : 56.6 MiB (3%)
Language                                 : Russian
Service kind                             : Complete Main
Default                                  : Inherited From: 2
Alternate group                          : 1
Encoded date                             : UTC 2017-04-06 13:36:07
Tagged date                              : UTC 2017-04-06 13:37:56
Fallback To                              : 2
Audio #3
ID                                       : 4
Format                                   : AAC
Format/Info                              : Advanced Audio Codec
Format profile                           : LC
Codec ID                                 : 40
Duration                                 : 41mn 14s
Bit rate mode                            : Variable
Bit rate                                 : 198 Kbps
Maximum bit rate                         : 296 Kbps
Channel(s)                               : 2 channels
Channel positions                        : Front: L R
Sampling rate                            : 48.0 KHz
Frame rate                               : 46.875 fps (1024 spf)
Compression mode                         : Lossy
Stream size                              : 58.3 MiB (3%)
Language                                 : English
Default                                  : No
Alternate group                          : 1
Encoded date                             : UTC 2017-04-06 13:36:07
Tagged date                              : UTC 2017-04-06 13:37:56
Fallback From                            : 5
Audio #4
ID                                       : 5
Format                                   : AC-3
Format/Info                              : Audio Coding 3
Format settings, Endianness              : Big
Codec ID                                 : ac-3
Duration                                 : 41mn 14s
Bit rate mode                            : Constant
Bit rate                                 : 384 Kbps
Channel(s)                               : 6 channels
Channel positions                        : Front: L C R, Side: L R, LFE
Sampling rate                            : 48.0 KHz
Frame rate                               : 31.250 fps (1536 spf)
Bit depth                                : 16 bits
Compression mode                         : Lossy
Stream size                              : 113 MiB (6%)
Language                                 : English
Service kind                             : Complete Main
Default                                  : No
Alternate group                          : 1
Encoded date                             : UTC 2017-04-06 13:36:07
Tagged date                              : UTC 2017-04-06 13:37:56
Fallback To                              : 4
Text
ID                                       : 6
Format                                   : Timed Text
Muxing mode                              : sbtl
Codec ID                                 : tx3g
Duration                                 : 41mn 12s
Bit rate mode                            : Variable
Bit rate                                 : 77 bps
Stream size                              : 23.3 KiB (0%)
Language                                 : English
Default                                  : Yes
Forced                                   : No
Alternate group                          : 2
Encoded date                             : UTC 2017-04-06 13:36:07
Tagged date                              : UTC 2017-04-06 13:37:56

Скриншоты





Less time searching
more time doing

Toomac has more than 1500 other beautifully designed tools in one collection. No ads, no in-app purchases, no paying for updates. Just apps, fully unlocked. Toomac is $9.99/month. You get an entire week free to try it out.


Get started Free trial for 7 days.

Побег: Продолжение / Prison Break: Sequel (Сезон 5, серии 1-9 из 9) [2017 г., Боевик, триллер, драма, криминал, детектив, WEB-DL 1080p-LQ]

Powered by TorrentPier II © Meithar, TorrentPier II Team