Six / Шесть / Шестой отряд (Сезон 1, серии 1-8 из 8) [2017 г., Боевик, драма, военный, история, HDTVRip 720p] (Обновляемая)

КОММЕНТАРИИ

Likes




Six / Шесть / Шестой отряд

Сезон 1, серии 1-8 из 8


-
Год выпуска: 2017
Производство: США / A+E Studios, The Weinstein Company LLC
Жанр: Боевик, драма, военный, история
Продолжительность: ~00:41:00 серия
Перевод: Профессиональный (многоголосый, закадровый) | Jaskier
Cубтитры: Отсутсвуют
Реклама: Отсутствует

-
Режиссер
Лесли Линка Глаттер, Микаэл Саломон
В ролях
Бэрри Слоун, Кайл Шмид, Хуан Пабло Раба, Эдвин Ходж, Брианна Дэвис, Надин Веласкес, Доминик Адамс, Уолтон Гоггинс, Джейлен Мур и др.
Описание
Six расскажет о буднях элитного подразделения «морских котиков» под названием «Шестой отряд». Лучшие из лучших, эти члены воинского братства принимали участие в самых сложных миссиях, включая физическое устранение лидера «Аль-Каиды» Усамы бен Ладена. Вдохновленный реальными операциями «Шестого отряда» сериал исследует характер и судьбу своих героев, которым по несколько раз на дню приходится решать вопросы жизни и смерти.

-
Качество: HDTVRip 720p
Формат: MP4
Исходник: lutik
Видео: AVC, 1280x720 (16:9), ~6464 kbps, 24 fps
Аудио #1: AAC, 48 kHz, 2ch, 192 kbps, Stereo | Русский
Аудио #2: AAC, 48,0 kHz, 2 ch, 384 kbps, Stereo | English
Аудио #3: AC3, 48 kHz, 6ch, 192 kbps, Surround | Русский
Аудио #4: AC3, 48,0 kHz, 6 ch, 384 kbps, Surround | English

Внимание! Раздача ведётся путём добавления новых серий – Сезон завершен


Внимание! Раздача ведётся путём добавления новых серий; при каждом добавлении создаётся новый торрент.
Чтобы начать докачку новой серии, пользователям необходимо сделать следующее:
1. Остановить скачивание;
2. Удалить старый торрент у себя из клиента (старые серии удалять не надо);
3. Скачать новый торрент и запустить его у себя в клиенте вместо старого, при этом указать клиенту путь в старую папку куда и должно происходить скачивание новых серий. Ваш клиент при этом должен произвести хеширование (проверку) старой папки и будет докачивать только те серии, которых у вас ещё нет. Старые серии при этом не удаляются, а продолжают раздаваться! Eсли вы уже удалили старые серии, то предотвратить повторную закачку старых серий можно, отжав галочку в соответствующих местах при запуске нового торрента.

Список серий


01. Pilot
02. Her Name Is Esther
03. Tour of Duty
04. Man Down
05. Collateral
06. Confession
07. Blood brothers
08. End game

iTunes Meta Tags

Collection                               : Шестой отряд
Season                                   : 1
Album                                    : Шестой отряд, Season 1
Album/Performer                          : Шестой отряд
Part                                     : 8
Track name                               : End Game
Track name/Position                      : 8
Performer                                : Шестой отряд
Director                                 : Alex Graves
Actor                                    : Walton Goggins / Donny Boaz / Jaylen Moore / Nondumiso Tembe / Nadine Velazquez / Brianne Davis / Dominic Adams / Edwin Hodge / Juan Pablo Raba / Kyle Schmid / Barry Sloane
Screenplay by                            : David Broyles / Alfredo Barrios Jr.
Genre                                    : Action, Drama
ContentType                              : TV Show
Description                              : Our Team finally comes face-to-face with Michael and his jihadist soldiers. / Действие происходит в наши дни. Сюжет повествует о команде «морских котиков», получивших в 2014 году задание устранить лидера талибов в Афганистане. Однако миссия грозит провалиться, после того как выясняется, что террористам оказывает помощь некий гражданин США.
Recorded date                            : 2017-03-08
Cover                                    : Yes
TVNetworkName                            : History
Part_ID                                  : 108
LongDescription                          : Our Team finally comes face-to-face with Michael and his jihadist soldiers.
HDVideo                                  : Yes
ContentRating                            : us-tv|TV-MA|600|

MI

General
Complete name                            : /Volumes/CLOUD/___inmac_films/___inmac_serials/_Six - 720p/SIX.Part.8.720p.mp4
Format                                   : MPEG-4
Format profile                           : Base Media / Version 2
Codec ID                                 : mp42 (mp42/isom)
File size                                : 2.42 GiB
Duration                                 : 43mn 58s
Overall bit rate mode                    : Variable
Overall bit rate                         : 7 875 Kbps
Collection                               : Шестой отряд
Season                                   : 1
Album                                    : Шестой отряд, Season 1
Album/Performer                          : Шестой отряд
Part                                     : 8
Track name                               : End Game
Track name/Position                      : 8
Performer                                : Шестой отряд
Director                                 : Alex Graves
Actor                                    : Walton Goggins / Donny Boaz / Jaylen Moore / Nondumiso Tembe / Nadine Velazquez / Brianne Davis / Dominic Adams / Edwin Hodge / Juan Pablo Raba / Kyle Schmid / Barry Sloane
Screenplay by                            : David Broyles / Alfredo Barrios Jr.
Genre                                    : Action, Drama
ContentType                              : TV Show
Description                              : Our Team finally comes face-to-face with Michael and his jihadist soldiers. / Действие происходит в наши дни. Сюжет повествует о команде «морских котиков», получивших в 2014 году задание устранить лидера талибов в Афганистане. Однако миссия грозит провалиться, после того как выясняется, что террористам оказывает помощь некий гражданин США.
Recorded date                            : 2017-03-08
Encoded date                             : UTC 2017-04-12 22:29:08
Tagged date                              : UTC 2017-04-12 22:31:51
Cover                                    : Yes
TVNetworkName                            : History
Part_ID                                  : 108
LongDescription                          : Our Team finally comes face-to-face with Michael and his jihadist soldiers.
HDVideo                                  : Yes
ContentRating                            : us-tv|TV-MA|600|
Video #1
ID                                       : 1
Format                                   : AVC
Format/Info                              : Advanced Video Codec
Format profile                           : [email protected]
Format settings, CABAC                   : Yes
Format settings, ReFrames                : 5 frames
Codec ID                                 : avc1
Codec ID/Info                            : Advanced Video Coding
Duration                                 : 43mn 58s
Bit rate                                 : 6 464 Kbps
Width                                    : 1 280 pixels
Height                                   : 720 pixels
Display aspect ratio                     : 16:9
Frame rate mode                          : Variable
Frame rate                               : 23.976 fps
Minimum frame rate                       : 23.810 fps
Maximum frame rate                       : 24.390 fps
Color space                              : YUV
Chroma subsampling                       : 4:2:0
Bit depth                                : 8 bits
Scan type                                : Progressive
Bits/(Pixel*Frame)                       : 0.250
Stream size                              : 1.98 GiB (82%)
Writing library                          : x264 core 148 r2744 b97ae06
Encoding settings                        : cabac=1 / ref=5 / deblock=1:0:0 / analyse=0x3:0x133 / me=umh / subme=7 / psy=1 / psy_rd=1.00:0.00 / mixed_ref=1 / me_range=16 / chroma_me=1 / trellis=1 / 8x8dct=1 / cqm=0 / deadzone=21,11 / fast_pskip=0 / chroma_qp_offset=-2 / threads=22 / lookahead_threads=3 / sliced_threads=0 / nr=0 / decimate=1 / interlaced=0 / bluray_compat=0 / constrained_intra=0 / bframes=3 / b_pyramid=2 / b_adapt=1 / b_bias=0 / direct=1 / weightb=1 / open_gop=0 / weightp=2 / keyint=250 / keyint_min=23 / scenecut=40 / intra_refresh=0 / rc_lookahead=40 / rc=2pass / mbtree=1 / bitrate=6464 / ratetol=1.0 / qcomp=0.60 / qpmin=0 / qpmax=69 / qpstep=4 / cplxblur=20.0 / qblur=0.5 / ip_ratio=1.40 / aq=1:1.00
Language                                 : English
Encoded date                             : UTC 2017-04-12 22:29:08
Tagged date                              : UTC 2017-04-12 22:31:49
Menus                                    : 6,7
Video #2
ID                                       : 7
Format                                   : JPEG
Codec ID                                 : jpeg
Duration                                 : 43mn 58s
Bit rate mode                            : Variable
Bit rate                                 : 789 bps
Width                                    : 640 pixels
Height                                   : 360 pixels
Display aspect ratio                     : 16:9
Frame rate mode                          : Variable
Frame rate                               : 0.002 fps
Minimum frame rate                       : 0.001 fps
Maximum frame rate                       : 0.003 fps
Color space                              : YUV
Chroma subsampling                       : 4:2:0
Bit depth                                : 8 bits
Compression mode                         : Lossy
Bits/(Pixel*Frame)                       : 1.712
Stream size                              : 241 KiB (0%)
Language                                 : English
Default                                  : No
Encoded date                             : UTC 2017-04-12 22:31:51
Tagged date                              : UTC 2017-04-12 22:31:51
Menu For                                 : 1
Audio #1
ID                                       : 2
Format                                   : AAC
Format/Info                              : Advanced Audio Codec
Format profile                           : LC
Codec ID                                 : 40
Duration                                 : 43mn 58s
Bit rate mode                            : Variable
Bit rate                                 : 192 Kbps
Maximum bit rate                         : 289 Kbps
Channel(s)                               : 2 channels
Channel positions                        : Front: L R
Sampling rate                            : 48.0 KHz
Frame rate                               : 46.875 fps (1024 spf)
Compression mode                         : Lossy
Stream size                              : 60.0 MiB (2%)
Language                                 : Russian
Default                                  : Yes
Alternate group                          : 1
Encoded date                             : UTC 2017-04-12 22:29:08
Tagged date                              : UTC 2017-04-12 22:31:49
Fallback From                            : 3
Audio #2
ID                                       : 3
Format                                   : AC-3
Format/Info                              : Audio Coding 3
Format settings, Endianness              : Big
Codec ID                                 : ac-3
Duration                                 : 43mn 58s
Bit rate mode                            : Constant
Bit rate                                 : 384 Kbps
Channel(s)                               : 6 channels
Channel positions                        : Front: L C R, Side: L R, LFE
Sampling rate                            : 48.0 KHz
Frame rate                               : 31.250 fps (1536 spf)
Bit depth                                : 16 bits
Compression mode                         : Lossy
Stream size                              : 121 MiB (5%)
Language                                 : Russian
Service kind                             : Complete Main
Default                                  : Inherited From: 2
Alternate group                          : 1
Encoded date                             : UTC 2017-04-12 22:29:08
Tagged date                              : UTC 2017-04-12 22:31:49
Fallback To                              : 2
Audio #3
ID                                       : 4
Format                                   : AAC
Format/Info                              : Advanced Audio Codec
Format profile                           : LC
Codec ID                                 : 40
Duration                                 : 43mn 58s
Bit rate mode                            : Variable
Bit rate                                 : 192 Kbps
Maximum bit rate                         : 300 Kbps
Channel(s)                               : 2 channels
Channel positions                        : Front: L R
Sampling rate                            : 48.0 KHz
Frame rate                               : 46.875 fps (1024 spf)
Compression mode                         : Lossy
Stream size                              : 59.8 MiB (2%)
Language                                 : English
Default                                  : No
Alternate group                          : 1
Encoded date                             : UTC 2017-04-12 22:29:08
Tagged date                              : UTC 2017-04-12 22:31:49
Fallback From                            : 5
Audio #4
ID                                       : 5
Format                                   : AC-3
Format/Info                              : Audio Coding 3
Format settings, Endianness              : Big
Codec ID                                 : ac-3
Duration                                 : 43mn 58s
Bit rate mode                            : Constant
Bit rate                                 : 640 Kbps
Channel(s)                               : 6 channels
Channel positions                        : Front: L C R, Side: L R, LFE
Sampling rate                            : 48.0 KHz
Frame rate                               : 31.250 fps (1536 spf)
Bit depth                                : 16 bits
Compression mode                         : Lossy
Stream size                              : 201 MiB (8%)
Language                                 : English
Service kind                             : Complete Main
Default                                  : No
Alternate group                          : 1
Encoded date                             : UTC 2017-04-12 22:29:08
Tagged date                              : UTC 2017-04-12 22:31:49
Fallback To                              : 4
Menu
ID                                       : 6
Codec ID                                 : text
Duration                                 : 43mn 58s
Language                                 : English
Encoded date                             : UTC 2017-04-12 22:31:49
Tagged date                              : UTC 2017-04-12 22:31:49
Bit rate mode                            : CBR
Menu For                                 : 1
00:00:00.000                             : 00:00:00.000
00:12:40.468                             : 00:12:40.468
00:20:01.450                             : 00:20:01.450
00:25:32.448                             : 00:25:32.448
00:34:34.322                             : 00:34:34.322

Скриншоты





Less time searching
more time doing

Toomac has more than 1500 other beautifully designed tools in one collection. No ads, no in-app purchases, no paying for updates. Just apps, fully unlocked. Toomac is $9.99/month. You get an entire week free to try it out.


Get started Free trial for 7 days.

Six / Шесть / Шестой отряд (Сезон 1, серии 1-8 из 8) [2017 г., Боевик, драма, военный, история, HDTVRip 720p] (Обновляемая)

Powered by TorrentPier II © Meithar, TorrentPier II Team