Планета Земля 2 / Planet Earth II (Джастин Андерсон) [2016 г., Документальный, научно-познавательный, природа, флора, фауна, BDRip 1080p]

КОММЕНТАРИИ

Likes




Планета Земля 2 / Planet Earth II

9.18 / 10

-
Год выпуска: 2016
Производство: Великобритания, BBC NHU, BBC America, BBC Television Centre, ZDF
Жанр: Документальный, научно-познавательный, природа, флора, фауна
Продолжительность: ~00:58:00 серия
Перевод: Профессиональный, двухголосый закадровый | Cтудия «Омикрон»
Субтитры: Английские, Хорватские, Голландские, Французские, Греческие, Польские, Словенские, Вьетнамские
Реклама: Отсутствует
Премьера (мир): 6 ноября 2016
-
Режисер: Джастин Андерсон
Продюсер: Ванесса Берловиц, Джеймс Брикелл, Джонатан Килинг
Оператор: Матео Уиллис, Джон Шир, Джонатан Джонс, ...
Композитор: Джаша Клебе, Джейкоб Ши, Ханс Циммер
Монтаж: Найджел Бак, Дэвид Пирс, Ник Карлине
В ролях
Дэвид Аттенборо
Описание
Дэвид Аттенборо возвращается с этим захватывающим документальным сериалом, показывая дикую жизнь на Планете Земля. Невероятные по красоте пейзажи и самые заповедные и малоизученные уголки нашей планеты. Беспрецедентный для документального фильма бюджет и еще больший масштаб. Новейшие режимы съемки и детализации картинки, сделали возможным показать великолепие нашей природы во всех подробностях.
Мир глазами самих животных под музыку Ханса Циммера и с Дэвидом Аттенборо за кадром. Завораживающе красивые пейзажи дикой природы, далекие и малоизученные уголки нашей планеты. Острова, горы, джунгли, пустыни, пастбища, города – никогда прежде Земля не была такой близкой. Оригинальный сериал 2006 года был одним из первых документальных HD-проектов о природе. Спустя 10 лет его продолжение использует самые прогрессивные технологии – формат сверхвысокой четкости, улучшенные стабилизаторы камеры, удаленная видеозапись и дроны.

-Качество: BDRip 1080p
Формат: M4V
Видео: AVC/H.264, 1920x1080 (16:9), ~12,0 Mbps, 25 fps
Исходник: nnmclub
Аудио 1: AAC, 2 ch, 197 kbps | DVO | Русский
Аудио 2: AAC, 2 ch, 197 kbps | DVO | Русский
Аудио 3: AC3, 6 ch, 640 kbps | Original | Английский
Аудио 4: AC3, 6 ch, 640 kbps | Original | Английский

Список серий



01. Острова. Islands
Удаленные острова предлагают убежище для некоторых из самых странных и редких существ на планеты. На одном из идиллических карибских островов изолированном от хищников, редкий карликовый ленивец мирно существует и процветает совместно с гнездящимися там альбатросами.
Но за жизнь на островах всегда приходится чем-то платить. На Галапагосских островах, молодые морские игуаны должны спасаться от натиска смертельно опасных змей-гонщиков в момент своего появления из яиц, отложенных в песке. На субантарктической острове Заводовски, условия жизни по-прежнему остаются такими же экстремальными. Каждый день, полтора миллиона пингвины борются против скал и свирепых волн, чтобы попасть или покинуть остров.
02. Горы. Mountains
Документальный фильм о дикой природе с Дэвидом Аттенборо продолжает уникальный взгляд изнутри на скрытую жизнь обитающих в горах животных.
03. Джунгли. Jungles
Джунгли - самые густонаселенные места обитания на планете. Таинственные миры, где необыкновенные животные конкурируют между собой в попытках выжить.
04. Пустыни. Deserts
Пустыни, места заставляющие животных придумывать хитроумные способы справиться с враждебными условиями, приводящими к возникновению самых невероятных историй выживания на Земле.
05. Луга (Пастбища). Grasslands
Луга охватывают одну четверть всей суши и дают приют большому числу существ дикой природы. Но чтобы выжить здесь, животные должны переносить самые враждебные сезонные изменения на планете. И причудливые сайгаки в Азии, и гигантские муравьи, в Бразилии живущие на лугах каждый по-своему приспособился, чтобы справиться с этими крайностями. В затопленном Окаванго львы вступают в бой с грозными буйволами, в саваннах пчелы-едоки используют слонов, чтобы поймать добычу - насекомых, а в морозной северной тундре карибу отправляется в дальние миграции...
06. Города. Cities
Города являются новейшей средой обитания на планете Земля. Серия расскажет о частичке дикой природы в наших городах.

iTunes Meta Tags

Collection                               : Планета Земля II
Season                                   : 1
Album                                    : Планета Земля II, Season 1
Album/Performer                          : Планета Земля II
Part                                     : 6
Track name                               : Города
Track name/Position                      : 6
Performer                                : Планета Земля II
Director                                 : Fredi Devas
Actor                                    : David Attenborough
Genre                                    : Documentary, Mini-Series
ContentType                              : TV Show
Description                              : Cities are growing at a faster rate than any other habitat on Earth. They may seem an unlikely place for animals to thrive, but they can be a world of surprising opportunity. Leopards prowl the streets of Mumbai, peregrine falcons hunt amongst New York's skyscrapers, and a million starlings perform spectacular aerial dances over Rome. In Jodhpur, langurs are revered as religious deities and in Harar, locals live in harmony with wild hyenas. Many animals, however, are struggling to cope in the urban jungle. As the architects of this environment, can humans choose to build cities that are homes for both them and wildlife? / Дэвид Аттенборо представляет серию документальных фильмов, исследуя, как животные решают проблемы выживания в самых знаковых местах обитания на Земле
Recorded date                            : 2016-12-11
Encoded date                             : UTC 2017-05-03 12:13:11
Tagged date                              : UTC 2017-05-03 15:05:09
Cover                                    : Yes
TVNetworkName                            : BBC One
Part_ID                                  : 106
LongDescription                          : Cities are growing at a faster rate than any other habitat on Earth. They may seem an unlikely place for animals to thrive, but they can be a world of surprising opportunity. Leopards prowl the streets of Mumbai, peregrine falcons hunt amongst New York's skyscrapers, and a million starlings perform spectacular aerial dances over Rome. In Jodhpur, langurs are revered as religious deities and in Harar, locals live in harmony with wild hyenas. Many animals, however, are struggling to cope in the urban jungle. As the architects of this environment, can humans choose to build cities that are homes for both them and wildlife?
ContentRating                            : us-tv|TV-G|300|

MI

General
Complete name                            : /Volumes/CLOUD II/___inmac_films2/Планета Земля 2. Planet Earth II (2016) BDRip 1800р/06. Города. Cities.m4v
Format                                   : MPEG-4
Codec ID                                 : M4V  (M4V /M4A /mp42/isom)
File size                                : 5.71 GiB
Duration                                 : 58mn 39s
Overall bit rate mode                    : Variable
Overall bit rate                         : 13.9 Mbps
Collection                               : Планета Земля II
Season                                   : 1
Album                                    : Планета Земля II, Season 1
Album/Performer                          : Планета Земля II
Part                                     : 6
Track name                               : Города
Track name/Position                      : 6
Performer                                : Планета Земля II
Director                                 : Fredi Devas
Actor                                    : David Attenborough
Genre                                    : Documentary, Mini-Series
ContentType                              : TV Show
Description                              : Cities are growing at a faster rate than any other habitat on Earth. They may seem an unlikely place for animals to thrive, but they can be a world of surprising opportunity. Leopards prowl the streets of Mumbai, peregrine falcons hunt amongst New York's skyscrapers, and a million starlings perform spectacular aerial dances over Rome. In Jodhpur, langurs are revered as religious deities and in Harar, locals live in harmony with wild hyenas. Many animals, however, are struggling to cope in the urban jungle. As the architects of this environment, can humans choose to build cities that are homes for both them and wildlife? / Дэвид Аттенборо представляет серию документальных фильмов, исследуя, как животные решают проблемы выживания в самых знаковых местах обитания на Земле
Recorded date                            : 2016-12-11
Encoded date                             : UTC 2017-05-03 12:13:11
Tagged date                              : UTC 2017-05-03 15:05:09
Cover                                    : Yes
TVNetworkName                            : BBC One
Part_ID                                  : 106
LongDescription                          : Cities are growing at a faster rate than any other habitat on Earth. They may seem an unlikely place for animals to thrive, but they can be a world of surprising opportunity. Leopards prowl the streets of Mumbai, peregrine falcons hunt amongst New York's skyscrapers, and a million starlings perform spectacular aerial dances over Rome. In Jodhpur, langurs are revered as religious deities and in Harar, locals live in harmony with wild hyenas. Many animals, however, are struggling to cope in the urban jungle. As the architects of this environment, can humans choose to build cities that are homes for both them and wildlife?
ContentRating                            : us-tv|TV-G|300|
Video #1
ID                                       : 1
Format                                   : AVC
Format/Info                              : Advanced Video Codec
Format profile                           : [email protected]
Format settings, CABAC                   : Yes
Format settings, ReFrames                : 4 frames
Codec ID                                 : avc1
Codec ID/Info                            : Advanced Video Coding
Duration                                 : 58mn 39s
Bit rate                                 : 12.2 Mbps
Width                                    : 1 920 pixels
Height                                   : 1 080 pixels
Display aspect ratio                     : 16:9
Frame rate mode                          : Constant
Frame rate                               : 25.000 fps
Color space                              : YUV
Chroma subsampling                       : 4:2:0
Bit depth                                : 8 bits
Scan type                                : Progressive
Bits/(Pixel*Frame)                       : 0.235
Stream size                              : 4.99 GiB (88%)
Writing library                          : x264 core 148 r2744 b97ae06
Encoding settings                        : cabac=1 / ref=4 / deblock=1:-3:-3 / analyse=0x3:0x113 / me=umh / subme=10 / psy=1 / psy_rd=1.00:0.00 / mixed_ref=1 / me_range=32 / chroma_me=1 / trellis=2 / 8x8dct=1 / cqm=0 / deadzone=21,11 / fast_pskip=1 / chroma_qp_offset=-2 / threads=6 / lookahead_threads=1 / sliced_threads=0 / nr=0 / decimate=1 / interlaced=0 / bluray_compat=0 / constrained_intra=0 / bframes=8 / b_pyramid=2 / b_adapt=2 / b_bias=0 / direct=1 / weightb=1 / open_gop=0 / weightp=2 / keyint=250 / keyint_min=25 / scenecut=40 / intra_refresh=0 / rc_lookahead=40 / rc=crf / mbtree=0 / crf=18.0 / qcomp=0.60 / qpmin=0 / qpmax=69 / qpstep=4 / vbv_maxrate=50000 / vbv_bufsize=62500 / crf_max=0.0 / nal_hrd=none / filler=0 / ip_ratio=1.40 / pb_ratio=1.30 / aq=1:0.80
Language                                 : English
Encoded date                             : UTC 2017-05-03 12:13:11
Tagged date                              : UTC 2017-05-03 12:25:19
Color range                              : Limited
Matrix coefficients                      : BT.709
Menus                                    : 10,11
Video #2
ID                                       : 11
Format                                   : JPEG
Codec ID                                 : jpeg
Duration                                 : 58mn 39s
Bit rate mode                            : Variable
Bit rate                                 : 507 bps
Width                                    : 640 pixels
Height                                   : 360 pixels
Display aspect ratio                     : 16:9
Frame rate mode                          : Variable
Frame rate                               : 0.002 fps
Minimum frame rate                       : 0.001 fps
Maximum frame rate                       : 4.167 fps
Color space                              : YUV
Chroma subsampling                       : 4:2:0
Bit depth                                : 8 bits
Compression mode                         : Lossy
Bits/(Pixel*Frame)                       : 1.100
Stream size                              : 217 KiB (0%)
Language                                 : English
Default                                  : No
Encoded date                             : UTC 2017-05-03 12:25:28
Tagged date                              : UTC 2017-05-03 12:25:28
Menu For                                 : 1
Audio #1
ID                                       : 12
Format                                   : AAC
Format/Info                              : Advanced Audio Codec
Format profile                           : LC
Codec ID                                 : 40
Duration                                 : 58mn 39s
Source duration                          : 58mn 39s
Bit rate mode                            : Variable
Bit rate                                 : 223 Kbps
Maximum bit rate                         : 265 Kbps
Channel(s)                               : 2 channels
Channel positions                        : Front: L R
Sampling rate                            : 48.0 KHz
Frame rate                               : 46.875 fps (1024 spf)
Compression mode                         : Lossy
Stream size                              : 93.7 MiB (2%)
Source stream size                       : 93.7 MiB (2%)
Language                                 : Russian
Default                                  : Yes
Alternate group                          : 1
Encoded date                             : UTC 2017-05-03 15:00:15
Tagged date                              : UTC 2017-05-03 15:05:08
Fallback From                            : 13
Audio #2
ID                                       : 13
Format                                   : AC-3
Format/Info                              : Audio Coding 3
Format settings, Endianness              : Big
Codec ID                                 : ac-3
Duration                                 : 58mn 39s
Bit rate mode                            : Constant
Bit rate                                 : 640 Kbps
Channel(s)                               : 6 channels
Channel positions                        : Front: L C R, Side: L R, LFE
Sampling rate                            : 48.0 KHz
Frame rate                               : 31.250 fps (1536 spf)
Bit depth                                : 16 bits
Compression mode                         : Lossy
Stream size                              : 268 MiB (5%)
Language                                 : Russian
Service kind                             : Complete Main
Default                                  : Inherited From: 12
Alternate group                          : 1
Encoded date                             : UTC 2017-05-03 15:00:15
Tagged date                              : UTC 2017-05-03 15:05:08
Fallback To                              : 12
Audio #3
ID                                       : 14
Format                                   : AAC
Format/Info                              : Advanced Audio Codec
Format profile                           : LC
Codec ID                                 : 40
Duration                                 : 58mn 39s
Source duration                          : 58mn 39s
Bit rate mode                            : Variable
Bit rate                                 : 219 Kbps
Maximum bit rate                         : 265 Kbps
Channel(s)                               : 2 channels
Channel positions                        : Front: L R
Sampling rate                            : 48.0 KHz
Frame rate                               : 46.875 fps (1024 spf)
Compression mode                         : Lossy
Stream size                              : 91.8 MiB (2%)
Source stream size                       : 91.8 MiB (2%)
Language                                 : English
Default                                  : No
Alternate group                          : 1
Encoded date                             : UTC 2017-05-03 15:00:15
Tagged date                              : UTC 2017-05-03 15:05:09
Fallback From                            : 15
Audio #4
ID                                       : 15
Format                                   : AC-3
Format/Info                              : Audio Coding 3
Format settings, Endianness              : Big
Codec ID                                 : ac-3
Duration                                 : 58mn 39s
Bit rate mode                            : Constant
Bit rate                                 : 640 Kbps
Channel(s)                               : 6 channels
Channel positions                        : Front: L C R, Side: L R, LFE
Sampling rate                            : 48.0 KHz
Frame rate                               : 31.250 fps (1536 spf)
Bit depth                                : 16 bits
Compression mode                         : Lossy
Stream size                              : 268 MiB (5%)
Language                                 : English
Service kind                             : Complete Main
Default                                  : No
Alternate group                          : 1
Encoded date                             : UTC 2017-05-03 15:00:15
Tagged date                              : UTC 2017-05-03 15:05:09
Fallback To                              : 14
Text #1
ID                                       : 2
Format                                   : Timed Text
Muxing mode                              : sbtl
Codec ID                                 : tx3g
Duration                                 : 57mn 56s
Bit rate mode                            : Variable
Bit rate                                 : 57 bps
Stream size                              : 24.2 KiB (0%)
Language                                 : English
Default                                  : Yes
Forced                                   : No
Alternate group                          : 2
Encoded date                             : UTC 2017-05-03 12:13:11
Tagged date                              : UTC 2017-05-03 12:25:19
Text #2
ID                                       : 3
Format                                   : Timed Text
Muxing mode                              : sbtl
Codec ID                                 : tx3g
Duration                                 : 58mn 20s
Bit rate mode                            : Variable
Bit rate                                 : 53 bps
Stream size                              : 22.4 KiB (0%)
Language                                 : Croatian
Default                                  : No
Forced                                   : No
Alternate group                          : 2
Encoded date                             : UTC 2017-05-03 12:13:11
Tagged date                              : UTC 2017-05-03 12:25:19
Text #3
ID                                       : 4
Format                                   : Timed Text
Muxing mode                              : sbtl
Codec ID                                 : tx3g
Duration                                 : 58mn 3s
Bit rate mode                            : Variable
Bit rate                                 : 77 bps
Stream size                              : 32.8 KiB (0%)
Language                                 : Dutch
Default                                  : No
Forced                                   : No
Alternate group                          : 2
Encoded date                             : UTC 2017-05-03 12:13:11
Tagged date                              : UTC 2017-05-03 12:25:19
Text #4
ID                                       : 5
Format                                   : Timed Text
Muxing mode                              : sbtl
Codec ID                                 : tx3g
Duration                                 : 58mn 20s
Bit rate mode                            : Variable
Bit rate                                 : 53 bps
Stream size                              : 22.9 KiB (0%)
Language                                 : French
Default                                  : No
Forced                                   : No
Alternate group                          : 2
Encoded date                             : UTC 2017-05-03 12:13:11
Tagged date                              : UTC 2017-05-03 12:25:19
Text #5
ID                                       : 6
Format                                   : Timed Text
Muxing mode                              : sbtl
Codec ID                                 : tx3g
Duration                                 : 57mn 56s
Bit rate mode                            : Variable
Bit rate                                 : 108 bps
Stream size                              : 45.7 KiB (0%)
Language                                 : Greek
Default                                  : No
Forced                                   : No
Alternate group                          : 2
Encoded date                             : UTC 2017-05-03 12:13:11
Tagged date                              : UTC 2017-05-03 12:25:19
Text #6
ID                                       : 7
Format                                   : Timed Text
Muxing mode                              : sbtl
Codec ID                                 : tx3g
Duration                                 : 58mn 17s
Bit rate mode                            : Variable
Bit rate                                 : 66 bps
Stream size                              : 28.1 KiB (0%)
Language                                 : Polish
Default                                  : No
Forced                                   : No
Alternate group                          : 2
Encoded date                             : UTC 2017-05-03 12:13:11
Tagged date                              : UTC 2017-05-03 12:25:19
Text #7
ID                                       : 8
Format                                   : Timed Text
Muxing mode                              : sbtl
Codec ID                                 : tx3g
Duration                                 : 58mn 12s
Bit rate mode                            : Variable
Bit rate                                 : 43 bps
Stream size                              : 18.3 KiB (0%)
Language                                 : Slovenian
Default                                  : No
Forced                                   : No
Alternate group                          : 2
Encoded date                             : UTC 2017-05-03 12:13:11
Tagged date                              : UTC 2017-05-03 12:25:19
Text #8
ID                                       : 9
Format                                   : Timed Text
Muxing mode                              : sbtl
Codec ID                                 : tx3g
Duration                                 : 57mn 56s
Bit rate mode                            : Variable
Bit rate                                 : 68 bps
Stream size                              : 28.8 KiB (0%)
Language                                 : Vietnamese
Default                                  : No
Forced                                   : No
Alternate group                          : 2
Encoded date                             : UTC 2017-05-03 12:13:11
Tagged date                              : UTC 2017-05-03 12:25:19
Menu
ID                                       : 10
Codec ID                                 : text
Duration                                 : 58mn 39s
Language                                 : English
Encoded date                             : UTC 2017-05-03 12:25:19
Tagged date                              : UTC 2017-05-03 12:25:19
Bit rate mode                            : CBR
Menu For                                 : 1
00:00:00.000                             : Chapter 1
00:10:54.760                             : Chapter 2
00:22:50.400                             : Chapter 3
00:29:46.120                             : Chapter 4
00:40:00.160                             : Chapter 5
00:49:11.160                             : Chapter 6
00:58:38.800                             : Chapter 7

Скриншоты





Less time searching
more time doing

Toomac has more than 1500 other beautifully designed tools in one collection. No ads, no in-app purchases, no paying for updates. Just apps, fully unlocked. Toomac is $9.99/month. You get an entire week free to try it out.


Get started Free trial for 7 days.

Планета Земля 2 / Planet Earth II (Джастин Андерсон) [2016 г., Документальный, научно-познавательный, природа, флора, фауна, BDRip 1080p]

Powered by TorrentPier II © Meithar, TorrentPier II Team