NG: Истории о Боге с Морганом Фриманом / The Story of God with Morgan Freeman (Сезон 2, серии 1-3 из 3) [2017 г., Документальный, религия, история, HDTVRip 720-LQ]

КОММЕНТАРИИ

Likes




NG: Истории о Боге с Морганом Фриманом / The Story of God with Morgan Freeman

Сезон 2, серии 1-3 из 3

8.1 / 10 7.1 / 10

-
Год выпуска: 2017
Производство: США, Revelations Entertainment for National Geographic Cannales
Жанр: Документальный, религия, история
Продолжительность: ~ 00:50:00 серия
Перевод: Дублированный
Субтитры: Отсутствуют
Дата мировой премьеры: 3 апреля 2017
Дата премьеры в РФ: 4 апреля 2017

-
Сценарий
Фрэнк Коза, Лиза Мишель Сингер, Скотт Тиффани
Продюсер
Морган Фриман, Лори МакКрири, Джеймс Янгер
Участник
Морган Фримен
Описание
Земное и божественное - две этих сущности с самого рождения человечества не дают нам покоя. С чего все началось? Есть ли кто-то, знающий обо всем больше нас? Как нам найти смысл жизни и гармонию? Морган Фриман, известный актер и мудрый человек, ищет свои собственные ответы на извечные вопросы в новом проекте канала National Geographic. 6 захватывающих серий отправят нас в удивительные места нашей планеты - от Каира до Гёбекли-Темпе, от Стоунхеджа до Варанаси. Вместе с автором программы мы окажемся и в пирамидах Египта, полных мистики, и в научных лабораториях с нейрологами и космологами, относящимися к религии, как к науке . 60 минут каждой серии наполнены не только сакральными знаниями, но и великолепными визуальными эффектами, и стилизованными сценами, максимально погружающими нас в атмосферу происходящего.

-Качество: HDTVRip 720-LQ
Формат: M4V
Видео: AVC/H.264, 1280x720, ~2954 kbps, 25 fps
Исходник: nnmclub
Аудио: AAС, 48,0 kHz, 2 ch, 185 kbps | DUB | Русский

Список серий


1. Избранный / The Chosen One
Морган выбирает нескольких религиозных лидеров, чтобы ответить на вопрос - по каким признакам их делают избранными? И какую роль они играют в их вероучении?
2. Рай и Ад / Heaven and Hell
Морган исследует те способы, которыми люди на земле устраивают рай и ад в своей жизни. Он участвует в обрядах заклинания бесов в Эфиопии, открывает тайны человеческих жертвоприношений у древнего народа Майя, беседует с женщиной, которая сама испытала ощущение попадания в рай после того, как побывала на пороге смерти.
3. Доказательства существования Бога / Proof of God
Верят ли еще в Бога в современном мире? Или все-таки есть моменты, когда его существование является бесспорным? Морган отправляется в путь, чтобы пройти захватывающий квест и найти тех людей, которые убеждены в том, что у них есть доказательства присутствия Бога в их жизни.

iTunes Meta Tags

Коллекция                                : Истории о Боге с Морганом Фриманом
Сезон                                    : 2
Альбом                                   : Истории о Боге с Морганом Фриманом, Season 2
Альбом/Исполнитель                       : Истории о Боге с Морганом Фриманом
Часть                                    : 1
Трек                                     : The Chosen One
Трек/Положение                           : 1
Исполнитель                              : Истории о Боге с Морганом Фриманом
Исполнитель                              : Morgan Freeman
Жанр                                     : Documentary
Тип содержимого                          : TV Show
Описание                                 : In the Season 2 premiere, those believed to be chosen to lead their believers are examined. / Земное и божественное — две этих сущности с самого рождения человечества не дают нам покоя. С чего все началось? Есть ли кто-то, знающий обо всем больше нас? Как нам найти смысл жизни и гармонию? Морган Фриман, известный актер и мудрый человек, ищет свои собственные ответы на извечные вопросы.
Дата записи                              : 2017-01-16
Дата кодирования                         : UTC 2017-05-20 09:15:57
Дата пометки                             : UTC 2017-05-20 09:17:41
Обложка                                  : Yes
TVNetworkName                            : National Geographic (US)
Part_ID                                  : 201
LongDescription                          : In the Season 2 premiere, those believed to be chosen to lead their believers are examined.
HDVideo                                  : Yes

MI

Общее
Полное имя                               : /Volumes/CLOUD II/Истории.о.Боге.(2.сезон).2017.AVC.720p.x264.HDTVRip.alf62/Истории о Боге S02E01.m4v
Формат                                   : MPEG-4
Идентификатор кодека                     : M4V  (M4V /M4A /mp42/isom)
Размер файла                             : 1,10 Гбайт
Продолжительность                        : 49 м. 58 с.
Режим общего битрейта                    : Переменный
Общий поток                              : 3145 Кбит/сек
Коллекция                                : Истории о Боге с Морганом Фриманом
Сезон                                    : 2
Альбом                                   : Истории о Боге с Морганом Фриманом, Season 2
Альбом/Исполнитель                       : Истории о Боге с Морганом Фриманом
Часть                                    : 1
Трек                                     : The Chosen One
Трек/Положение                           : 1
Исполнитель                              : Истории о Боге с Морганом Фриманом
Исполнитель                              : Morgan Freeman
Жанр                                     : Documentary
Тип содержимого                          : TV Show
Описание                                 : In the Season 2 premiere, those believed to be chosen to lead their believers are examined. / Земное и божественное — две этих сущности с самого рождения человечества не дают нам покоя. С чего все началось? Есть ли кто-то, знающий обо всем больше нас? Как нам найти смысл жизни и гармонию? Морган Фриман, известный актер и мудрый человек, ищет свои собственные ответы на извечные вопросы.
Дата записи                              : 2017-01-16
Дата кодирования                         : UTC 2017-05-20 09:15:57
Дата пометки                             : UTC 2017-05-20 09:17:41
Обложка                                  : Yes
TVNetworkName                            : National Geographic (US)
Part_ID                                  : 201
LongDescription                          : In the Season 2 premiere, those believed to be chosen to lead their believers are examined.
HDVideo                                  : Yes
Видео
Идентификатор                            : 1
Формат                                   : AVC
Формат/Информация                        : Advanced Video Codec
Профиль формата                          : [email protected]
Параметр CABAC формата                   : Да
Параметр ReFrames формата                : 5 кадров
Идентификатор кодека                     : avc1
Идентификатор кодека/Информация          : Advanced Video Coding
Продолжительность                        : 49 м. 58 с.
Битрейт                                  : 2954 Кбит/сек
Ширина                                   : 1280 пикселей
Высота                                   : 720 пикселей
Соотношение сторон                       : 16:9
Режим частоты кадров                     : Переменный
Частота кадров                           : 29,970 (30000/1001) кадров/сек
Минимальная частота кадров               : 29,412 кадров/сек
Максимальная частота кадров              : 30,303 кадров/сек
Цветовое пространство                    : YUV
Субдискретизация насыщенности            : 4:2:0
Битовая глубина                          : 8 бит
Тип развёртки                            : Прогрессивная
Бит/(Пиксели*Кадры)                      : 0.107
Размер потока                            : 1,03 Гбайт (94%)
Библиотека кодирования                   : x264 core 148 r2744 b97ae06
Настройки программы                      : cabac=1 / ref=5 / deblock=1:0:0 / analyse=0x3:0x113 / me=umh / subme=8 / psy=1 / psy_rd=1.00:0.00 / mixed_ref=1 / me_range=16 / chroma_me=1 / trellis=2 / 8x8dct=1 / cqm=0 / deadzone=21,11 / fast_pskip=1 / chroma_qp_offset=-2 / threads=12 / lookahead_threads=2 / sliced_threads=0 / nr=0 / decimate=1 / interlaced=0 / bluray_compat=0 / constrained_intra=0 / bframes=3 / b_pyramid=2 / b_adapt=1 / b_bias=0 / direct=3 / weightb=1 / open_gop=0 / weightp=2 / keyint=250 / keyint_min=25 / scenecut=40 / intra_refresh=0 / rc_lookahead=50 / rc=crf / mbtree=1 / crf=20.0 / qcomp=0.60 / qpmin=0 / qpmax=69 / qpstep=4 / ip_ratio=1.40 / aq=1:1.00
Дата кодирования                         : UTC 2017-05-20 09:15:57
Дата пометки                             : UTC 2017-05-20 09:17:41
Цветовой диапазон                        : Limited
Коэффициенты матрицы                     : BT.709
Аудио
Идентификатор                            : 2
Формат                                   : AAC
Формат/Информация                        : Advanced Audio Codec
Профиль формата                          : LC
Идентификатор кодека                     : 40
Продолжительность                        : 49 м. 58 с.
Вид битрейта                             : Переменный
Битрейт                                  : 185 Кбит/сек
Максимальный битрейт                     : 260 Кбит/сек
Каналы                                   : 2 канала
Расположение каналов                     : Front: L R
Частота                                  : 48,0 КГц
Частота кадров                           : 46,875 кадров/сек (1024 spf)
Метод сжатия                             : С потерями
Размер потока                            : 66,0 Мбайт (6%)
Default                                  : Да
Alternate group                          : 1
Дата кодирования                         : UTC 2017-05-20 09:15:57
Дата пометки                             : UTC 2017-05-20 09:17:41

Скриншоты


Размер .torrent файла 36 KB

Registered [ 2017-06-24 00:50 ] · EBF64896CAA2712801EF000AFDE13E8B1A71CEE1
checked
Размер файлов 3.49 GB
Инструкции / FAQКак скачать раздачуРейтинг упал ниже 0,3?Seed-бонусы за сидированиеQA по скорости скачивания

NG: Истории о Боге с Морганом Фриманом / The Story of God with Morgan Freeman (Сезон 2, серии 1-3 из 3) [2017 г., Документальный, религия, история, HDTVRip 720-LQ]

      

Comments

 
Heads necessary to send messages to enable JavaScript

Less time searching
more time doing

Toomac has more than 1500 other beautifully designed tools in one collection. No ads, no in-app purchases, no paying for updates. Just apps, fully unlocked. Toomac is $9.99/month. You get an entire week free to try it out.


Get started Free trial for 7 days



Powered by TorrentPier II © Meithar, TorrentPier II Team