Billions / Миллиарды 1 сезон (1-12) - 2 сезон (1-12) [2016 г., Драма, HDTVRip 720p] LostFilm

КОММЕНТАРИИ

Likes




Billions / Миллиарды

«Power is the ultimate currency» / Сезон 1, Серии 1-12 из 12 / Сезон 2, Серии 1-12 из 12

8.4 / 10 7.9 / 10

-

Год выпуска: 2016
Производство: США / Showtime Entertainment
Жанр: Драма
Продолжительность: ~00:58:00 серия
Перевод: Многоголосый закадровый, профессиональный | LostFilm
Субтитры: Отсутствуют
Реклама: Отсутствует
Премьера (Мир): 1 января 2016
Премьера (РФ): 6 ноября 2016
-
Режиссер: Анна Боден, Райан Флек, Нил Бёргер
Сценарий: Брайан Коппельман, Дэвид Левин, Эндрю Росс Соркин
Продюсер: Майк Харроп, Адам Р. Перлман, Перри Кипперман
Оператор: Джэйк Полонски, Рэдиум Чунг, Эрик Стилберг
Композитор: Eskmo
Художник: Майкл Шоу, Кристофер Минард, Ричард Дэннис
Монтаж: Наоми Джерати, Марни Мейер, Сьюзэн Е. Морс

В ролях
Дэмиэн Льюис, Пол Джаматти, Мэгги Сифф, Малин Акерман, Дэниэл К. Исаак, Ильфенеш Хадера, Келли АуКойн, Тоби Леонард Мур, Дэвид Костабайл, Джек Гор и др.



Описание
В мире власти и сверхприбылей, в самом сердце Нью-Йорка, вовсю идет противостояние. Бобби Аксельрод – амбициозный король хедж-фондов, ведущий рискованные, но блестяще успешные финансовые дела. Чак – принципиальный федеральный прокурор, который давно охотится за Бобби, но во вселенной больших денег совсем другие законы...
Продолжение популярного американского драматического сериала. Говорят, в современном мире невозможно заработать даже миллион честным путем. Только благодаря махинациям, манипуляциям и жестокой конкуренции можно добиться действительно больших высот в мире бизнеса. Бобби давно уже это понял, поэтому сейчас на всех его счетах хранится несколько миллиардов долларов, которые он успешно прибавляет с каждым днём. Прокурор Чак, который когда-то поклялся засадить за решетку этого наглого, но весьма влиятельного миллиардера, теперь всячески пытается подобраться к нему, в то время как Бобби всегда оказывается на шаг впереди. А всё благодаря его уникальной способности видеть ближайшее будущее…

Технические данные – 1 сезон


Качество: HDTVRip 720p
Исходник: LostFilm
Формат: MP4
Видео: AVC, 1280x720, ~4000 kbps, 24 fps
Аудио: AAC, 2 ch, 241 kbps, 48 kHz | MVO | Русский

iTunes Meta Tags

Collection                               : Billions.S01E01.720p
Album                                    : Billions.S01E01.720p
Track name                               : Pilot
Director                                 : Neil Burger
Codirector                               : codirector
Actor                                    : Paul Giamatti / Damian Lewis / Maggie Siff / Condola Rashad / David Costabile / Toby Leonard Moore / Malin Akerman
Screenplay by                            : Brian Koppelman / David Levien / Andrew Ross Sorkin
Production studio                        : studio
Genre                                    : Drama
ContentType                              : Unknown Type
Recorded date                            : 2016-01-17
Encoded date                             : UTC 2017-03-09 18:47:54
Tagged date                              : UTC 2017-03-09 18:47:54
Cover                                    : Yes
LongDescription                          : Chuck Rhoades, the powerful U.S. Attorney for the Southern District of New York, is tipped to a case of insider trading with links to Axe Capital and the billionaire hedge fund king Bobby “Axe” Axelrod. This sets Chuck on a collision course with one of the most powerful men on Wall Street. While it could be a career-defining case for Chuck, he must tread carefully, because his wife, Wendy Rhoades, is the in-house performance coach at Axe Capital and Axe’s key confidante. But a costly purchase b
TVNetworkName                            : Showtime

MI

General
Complete name                            : /Volumes/CLOUD/___inmac_films/___inmac_serials/_Billinos_S1-S2_720p_Lostfilm/Season 1/Billions.S01E01.mp4
Format                                   : MPEG-4
Format profile                           : Base Media / Version 2
Codec ID                                 : mp42 (mp42)
File size                                : 1.86 GiB
Duration                                 : 59mn 52s
Overall bit rate                         : 4 444 Kbps
Collection                               : Billions.S01E01.720p.WEB.rus.LostFilm.TV
Album                                    : Billions.S01E01.720p.WEB.rus.LostFilm.TV,Season 1
Track name                               : Pilot
Director                                 : Neil Burger
Codirector                               : codirector
Actor                                    : Paul Giamatti / Damian Lewis / Maggie Siff / Condola Rashad / David Costabile / Toby Leonard Moore / Malin Akerman
Screenplay by                            : Brian Koppelman / David Levien / Andrew Ross Sorkin
Production studio                        : studio
Genre                                    : Drama
ContentType                              : Unknown Type
Recorded date                            : 2016-01-17
Encoded date                             : UTC 2017-03-09 18:47:54
Tagged date                              : UTC 2017-03-09 18:47:54
Cover                                    : Yes
LongDescription                          : Chuck Rhoades, the powerful U.S. Attorney for the Southern District of New York, is tipped to a case of insider trading with links to Axe Capital and the billionaire hedge fund king Bobby “Axe” Axelrod. This sets Chuck on a collision course with one of the most powerful men on Wall Street. While it could be a career-defining case for Chuck, he must tread carefully, because his wife, Wendy Rhoades, is the in-house performance coach at Axe Capital and Axe’s key confidante. But a costly purchase b
TVNetworkName                            : Showtime
Video
ID                                       : 1
Format                                   : AVC
Format/Info                              : Advanced Video Codec
Format profile                           : [email protected]
Format settings, CABAC                   : Yes
Format settings, ReFrames                : 2 frames
Format settings, GOP                     : M=3, N=30
Muxing mode                              : Container [email protected]
Codec ID                                 : avc1
Codec ID/Info                            : Advanced Video Coding
Duration                                 : 59mn 52s
Bit rate                                 : 4 311 Kbps
Width                                    : 1 280 pixels
Height                                   : 720 pixels
Display aspect ratio                     : 16:9
Frame rate mode                          : Constant
Frame rate                               : 24.000 fps
Color space                              : YUV
Chroma subsampling                       : 4:2:0
Bit depth                                : 8 bits
Scan type                                : Progressive
Bits/(Pixel*Frame)                       : 0.195
Stream size                              : 1.80 GiB (97%)
Encoding settings : cabac=1 / ref=2 / deblock=1:-3:-2 / analyse=0x3:0x113 / me=hex / subme=7 / psy=1 / psy_rd=1.00:0.00 / mixed_ref=1 / me_range=16 / chroma_me=1 / trellis=1 / 8x8dct=1 / cqm=0 / deadzone=21,11 / fast_pskip=1 / chroma_qp_offset=-2 / threads=12 / sliced_threads=0 / nr=0 / decimate=1 / interlaced=0 / constrained_intra=0 / bframes=5 / b_pyramid=2 / b_adapt=1 / b_bias=0 / direct=1 / weightb=1 / open_gop=0 / weightp=2 / keyint=250 / keyint_min=25 / scenecut=40 / intra_refresh=0 / rc_lookahead=40 / rc=2pass / mbtree=1 / bitrate=4000 / ratetol=1.0 / qcomp=0.60 / qpmin=0 / qpmax=51 / qpstep=4 / cplxblur=20.0 / qblur=0.5 / vbv_maxrate=10000 / vbv_bufsize=256000 / ip_ratio=1.40 / aq=1:1.00 / nal_hrd=none
Language                                 : English
Encoded date                             : UTC 1951-03-09 18:47:54
Tagged date                              : UTC 1951-03-09 18:47:54
Audio
ID                                       : 2
Format                                   : AAC
Format/Info                              : Advanced Audio Codec
Format profile                           : LC
Codec ID                                 : 40
Duration                                 : 59mn 52s
Bit rate mode                            : Constant
Bit rate                                 : 128 Kbps
Channel(s)                               : 2 channels
Channel positions                        : Front: L R
Sampling rate                            : 48.0 KHz
Frame rate                               : 46.875 fps (1024 spf)
Compression mode                         : Lossy
Stream size                              : 54.8 MiB (3%)
Title                                    : Stereo
Language                                 : English
Default                                  : Yes
Alternate group                          : 1
Encoded date                             : UTC 1951-03-09 18:47:54
Tagged date                              : UTC 1951-03-09 18:47:54

Список серий


01. Pilot / Пилот
02. Naming Rights / Право на имя
03. YumTime / Ямтайм
04. Short Squeeze / Шорт-сквиз
05. The Good Life / Хорошая жизнь
06. The Deal / Сделка
07. The Punch / Удар
08. Boasts and Rails / Защита и атака
09. Where the F*ck Is Donnie? / Куда прое***ся Донни?
10. Quality of Life / Качество жизни
11. Magical Thinking / Магическое мышление
12. The Conversation / Разговор

Скриншоты


Технические данные – 2 сезон



Качество: HDTVRip 720p
Исходник: LostFilm
Формат: MP4
Видео: AVC/H.264, 1280x720 (16:9), ~4000 Кбит/сек, 24 fps
Аудио: AAC, 2 ch, 48 kHz, 243 Кбит/сек | MVO | Pусский

iTunes Meta Tags

Collection                               : Billions.S02E01.720p
Album                                    : Billions.S02E01.720p
Track name                               : Risk Management
Director                                 : Reed Morano
Codirector                               : codirector
Actor                                    : Paul Giamatti / Damian Lewis / Maggie Siff / Condola Rashad / David Costabile / Toby Leonard Moore / Malin Akerman
Screenplay by                            : Brian Koppelman / David Levien
Production studio                        : studio
Genre                                    : Drama
ContentType                              : Unknown Type
Recorded date                            : 2017-02-19
Encoded date                             : UTC 2017-03-09 22:27:48
Tagged date                              : UTC 2017-03-09 22:27:48
Cover                                    : Yes
LongDescription                          : In the aftermath of their Season One confrontation, U.S. Attorney Chuck Rhoades and hedge fund king Bobby Axelrod are digging out of the wreckage. Chuck faces scrutiny from within his office and from the Attorney General. Axe refortifies Axe Capital, and weighs his options for retaliation. The fund wrestles with a precarious economic landscape that threatens the very existence of Axe Cap. Wendy entertains an offer from a rival hedge fund manager. Lara intervenes in an emergency at her children’
TVNetworkName                            : Showtime

MI

General
Complete name                            : /Volumes/CLOUD/___inmac_films/___inmac_serials/_Billinos_S1-S2_720p_Lostfilm/Season 2/Billions.S02E01.mp4
Format                                   : MPEG-4
Format profile                           : Base Media / Version 2
Codec ID                                 : mp42 (mp42)
File size                                : 1.64 GiB
Duration                                 : 57mn 38s
Overall bit rate                         : 4 078 Kbps
Collection                               : Billions.S02E01.720p.WEB
Album                                    : Billions.S02E01.720p
Track name                               : Risk Management
Director                                 : Reed Morano
Codirector                               : codirector
Actor                                    : Paul Giamatti / Damian Lewis / Maggie Siff / Condola Rashad / David Costabile / Toby Leonard Moore / Malin Akerman
Screenplay by                            : Brian Koppelman / David Levien
Production studio                        : studio
Genre                                    : Drama
ContentType                              : Unknown Type
Recorded date                            : 2017-02-19
Encoded date                             : UTC 2017-03-09 22:27:48
Tagged date                              : UTC 2017-03-09 22:27:48
Cover                                    : Yes
LongDescription                          : In the aftermath of their Season One confrontation, U.S. Attorney Chuck Rhoades and hedge fund king Bobby Axelrod are digging out of the wreckage. Chuck faces scrutiny from within his office and from the Attorney General. Axe refortifies Axe Capital, and weighs his options for retaliation. The fund wrestles with a precarious economic landscape that threatens the very existence of Axe Cap. Wendy entertains an offer from a rival hedge fund manager. Lara intervenes in an emergency at her children’
TVNetworkName                            : Showtime
Video
ID                                       : 1
Format                                   : AVC
Format/Info                              : Advanced Video Codec
Format profile                           : [email protected]
Format settings, CABAC                   : Yes
Format settings, ReFrames                : 2 frames
Format settings, GOP                     : M=3, N=30
Muxing mode                              : Container [email protected]
Codec ID                                 : avc1
Codec ID/Info                            : Advanced Video Coding
Duration                                 : 57mn 38s
Bit rate                                 : 3 945 Kbps
Width                                    : 1 280 pixels
Height                                   : 720 pixels
Display aspect ratio                     : 16:9
Frame rate mode                          : Constant
Frame rate                               : 24.000 fps
Color space                              : YUV
Chroma subsampling                       : 4:2:0
Bit depth                                : 8 bits
Scan type                                : Progressive
Bits/(Pixel*Frame)                       : 0.178
Stream size                              : 1.59 GiB (97%)
Encoding settings : cabac=1 / ref=4 / deblock=1:-3:-2 / analyse=0x3:0x113 / me=hex / subme=7 / psy=1 / psy_rd=1.00:0.00 / mixed_ref=1 / me_range=16 / chroma_me=1 / trellis=1 / 8x8dct=1 / cqm=0 / deadzone=21,11 / fast_pskip=1 / chroma_qp_offset=-2 / threads=12 / sliced_threads=0 / nr=0 / decimate=1 / interlaced=0 / constrained_intra=0 / bframes=5 / b_pyramid=2 / b_adapt=1 / b_bias=0 / direct=1 / weightb=1 / open_gop=0 / weightp=2 / keyint=250 / keyint_min=25 / scenecut=40 / intra_refresh=0 / rc_lookahead=40 / rc=2pass / mbtree=1 / bitrate=4000 / ratetol=1.0 / qcomp=0.60 / qpmin=0 / qpmax=51 / qpstep=4 / cplxblur=20.0 / qblur=0.5 / vbv_maxrate=10000 / vbv_bufsize=256000 / ip_ratio=1.40 / aq=1:1.00 / nal_hrd=none
Language                                 : English
Encoded date                             : UTC 1951-03-09 22:27:48
Tagged date                              : UTC 1951-03-09 22:27:48
Audio
ID                                       : 2
Format                                   : AAC
Format/Info                              : Advanced Audio Codec
Format profile                           : LC
Codec ID                                 : 40
Duration                                 : 57mn 38s
Bit rate mode                            : Constant
Bit rate                                 : 128 Kbps
Channel(s)                               : 2 channels
Channel positions                        : Front: L R
Sampling rate                            : 48.0 KHz
Frame rate                               : 46.875 fps (1024 spf)
Compression mode                         : Lossy
Stream size                              : 52.8 MiB (3%)
Title                                    : Stereo
Language                                 : English
Default                                  : Yes
Alternate group                          : 1
Encoded date                             : UTC 1951-03-09 22:27:48
Tagged date                              : UTC 1951-03-09 22:27:48

Список серий


01. Risk Management / Управление рисками
02. Dead Cat Bounce / Прыжок мертвой кошки
03. Optimal Play / Оптимальная игра
04. The Oath / Клятва
05. Currency / Валюта
06. Indian Four / Индиан 4
07. Victory Lap / Победный круг
08. The Kingmaker / Делатель королей
09. Sic Transit Imperium / Так уходит империя
10. With or Without You / С тобой или без тебя
11. Golden Frog Time / Время золотой лягушки
12. Ball in Hand / Шар в руке

Скриншоты





Less time searching
more time doing

Toomac has more than 1500 other beautifully designed tools in one collection. No ads, no in-app purchases, no paying for updates. Just apps, fully unlocked. Toomac is $9.99/month. You get an entire week free to try it out.


Get started Free trial for 7 days.

Billions / Миллиарды 1 сезон (1-12) - 2 сезон (1-12) [2016 г., Драма, HDTVRip 720p] LostFilm

Powered by TorrentPier II © Meithar, TorrentPier II Team