Tom and Jerry / Том и Джерри [1940-1958 г., Рисованная анимация, Комедия, HDRip 1080p-LQ]

КОММЕНТАРИИ

Likes



Tom and Jerry / Том и Джерри
- Год выпуска: 1940-1958
Страна: США
Жанр: Рисованная анимация, Комедия
Продолжительность: 6 сборников по ~ 02:25:00
Перевод: Профессиональный (двухголосый закадровый)
Субтитры: отсутствуют

-Режиссер: Джозеф Барбера, Уильям Ханна
Описание:
Кот Том и мышонок Джерри - парочка, прославившаяся на весь мир. Уже несколько десятков лет Том гоняется за Джерри с неослабевающим азартом. Том придумывает всё новые и новые хитроумные уловки, чтобы поймать Джерри, но мышонок всё время выкручивается с не меньшей изобретательностью.

-Качество: HDRip 1080p-LQ
Исходник: nnmclub
Видео: AVC, 1440x1080, ~4000 Kbps 25 fps
Формат: M4V
Аудио 1: AAC, 2 ch, 329 kbps, 48 kHz | Русский
Аудио 2: AC3, 6 ch, 448 kbps, 48 kHz | Русский

iTunes Meta Tags

Коллекция                                : Том и Джерри
Сезон                                    : 0
Альбом                                   : Том и Джерри, Season 0
Альбом/Исполнитель                       : Том и Джерри
Часть                                    : 1
Трек                                     : Tom and Jerry: The Movie
Трек/Положение                           : 1
Исполнитель                              : Том и Джерри
Исполнитель                              : Lillian Randolph / Daws Butler / Mel Blanc / June Foray / George O'Hanlon / Janet Waldo / Dick Beals
Жанр                                     : Animation, Children, Comedy
Тип содержимого                          : TV Show
Описание                                 : The popular cartoon cat and mouse are thrown into a feature film. The story has the twosome trying to help an orphan girl who is being berated and exploited by a greedy guardian. / Дети всего мира с восторгом следят за приключениями шустрого мышонка Джерри и невезучего кота Тома. Самые яркие, увлекательные и захватывающие приключения неразлучных друзей-противников. Находчивые выходки героев этого мультфильма не дадут сдержаться от смеха ни одной минуты. Трудно поверить, но самый первый мультик с их участием появился аж в 1940 году. За свою, более чем 50-летнюю, бурную деятельность эти бестии перепробовали все мыслимые способы насолить друг другу, чем изрядно повеселили несколько поколений зрителей.
Part_ID                                  : 001
LongDescription                          : The popular cartoon cat and mouse are thrown into a feature film. The story has the twosome trying to help an orphan girl who is being berated and exploited by a greedy guardian.
ContentRating                            : us-tv|TV-G|300|

MI

Общее
Полное имя                               : /Volumes/CLOUD/___inmac_films/___inmac_serials/Tom and Jerry (1080p)/Том и Джерри 1 часть.m4v
Формат                                   : MPEG-4
Идентификатор кодека                     : M4V  (M4V /M4A /mp42/isom)
Размер файла                             : 4,83 Гбайт
Продолжительность                        : 2 ч. 23 м.
Режим общего битрейта                    : Переменный
Общий поток                              : 4803 Кбит/сек
Коллекция                                : Том и Джерри
Сезон                                    : 0
Альбом                                   : Том и Джерри, Season 0
Альбом/Исполнитель                       : Том и Джерри
Часть                                    : 1
Трек                                     : Tom and Jerry: The Movie
Трек/Положение                           : 1
Исполнитель                              : Том и Джерри
Исполнитель                              : Lillian Randolph / Daws Butler / Mel Blanc / June Foray / George O'Hanlon / Janet Waldo / Dick Beals
Жанр                                     : Animation, Children, Comedy
Тип содержимого                          : TV Show
Описание                                 : The popular cartoon cat and mouse are thrown into a feature film. The story has the twosome trying to help an orphan girl who is being berated and exploited by a greedy guardian. / Дети всего мира с восторгом следят за приключениями шустрого мышонка Джерри и невезучего кота Тома. Самые яркие, увлекательные и захватывающие приключения неразлучных друзей-противников. Находчивые выходки героев этого мультфильма не дадут сдержаться от смеха ни одной минуты. Трудно поверить, но самый первый мультик с их участием появился аж в 1940 году. За свою, более чем 50-летнюю, бурную деятельность эти бестии перепробовали все мыслимые способы насолить друг другу, чем изрядно повеселили несколько поколений зрителей.
Дата записи                              : 1993-07-30
Дата кодирования                         : UTC 2017-03-23 18:52:56
Дата пометки                             : UTC 2017-03-23 18:58:04
Программа кодирования                    : XviD4PSP 6.0 / 53.31.100
Обложка                                  : Yes
TVNetworkName                            : CBS
Part_ID                                  : 001
LongDescription                          : The popular cartoon cat and mouse are thrown into a feature film. The story has the twosome trying to help an orphan girl who is being berated and exploited by a greedy guardian.
ContentRating                            : us-tv|TV-G|300|
Видео
Идентификатор                            : 1
Формат                                   : AVC
Формат/Информация                        : Advanced Video Codec
Профиль формата                          : [email protected]
Параметр CABAC формата                   : Да
Параметр ReFrames формата                : 3 кадра
Идентификатор кодека                     : avc1
Идентификатор кодека/Информация          : Advanced Video Coding
Продолжительность                        : 2 ч. 23 м.
Битрейт                                  : 4000 Кбит/сек
Ширина                                   : 1440 пикселей
Высота                                   : 1080 пикселей
Соотношение сторон                       : 4:3
Режим частоты кадров                     : Переменный
Частота кадров                           : 25,000 кадров/сек
Минимальная частота кадров               : 12,500 кадров/сек
Максимальная частота кадров              : 100000,000 кадров/сек
Цветовое пространство                    : YUV
Субдискретизация насыщенности            : 4:2:0
Битовая глубина                          : 8 бит
Тип развёртки                            : Прогрессивная
Бит/(Пиксели*Кадры)                      : 0.103
Размер потока                            : 4,04 Гбайт (84%)
Библиотека кодирования                   : x264 core 120 r2146M bcd41db
Настройки программы                      : cabac=1 / ref=3 / deblock=1:0:0 / analyse=0x3:0x133 / me=dia / subme=5 / psy=1 / psy_rd=1.00:0.20 / mixed_ref=1 / me_range=16 / chroma_me=1 / trellis=0 / 8x8dct=1 / cqm=0 / deadzone=21,11 / fast_pskip=1 / chroma_qp_offset=0 / threads=8 / sliced_threads=0 / nr=0 / decimate=1 / interlaced=0 / bluray_compat=0 / constrained_intra=0 / bframes=3 / b_pyramid=1 / b_adapt=0 / b_bias=0 / direct=3 / weightb=1 / open_gop=0 / weightp=0 / keyint=250 / keyint_min=25 / scenecut=40 / intra_refresh=0 / rc_lookahead=40 / rc=abr / mbtree=1 / bitrate=4000 / ratetol=1.0 / qcomp=0.60 / qpmin=10 / qpmax=51 / qpstep=4 / ip_ratio=1.40 / aq=1:1.00
Дата кодирования                         : UTC 2017-03-23 18:52:56
Дата пометки                             : UTC 2017-03-23 18:58:03
Аудио #1
Идентификатор                            : 2
Формат                                   : AAC
Формат/Информация                        : Advanced Audio Codec
Профиль формата                          : LC
Идентификатор кодека                     : 40
Продолжительность                        : 2 ч. 23 м.
Вид битрейта                             : Переменный
Битрейт                                  : 329 Кбит/сек
Максимальный битрейт                     : 499 Кбит/сек
Каналы                                   : 2 канала
Расположение каналов                     : Front: L R
Частота                                  : 48,0 КГц
Частота кадров                           : 46,875 кадров/сек (1024 spf)
Метод сжатия                             : С потерями
Размер потока                            : 339 Мбайт (7%)
Default                                  : Да
Alternate group                          : 1
Дата кодирования                         : UTC 2017-03-23 18:52:56
Дата пометки                             : UTC 2017-03-23 18:58:03
Fallback From                            : 3
Аудио #2
Идентификатор                            : 3
Формат                                   : AC-3
Формат/Информация                        : Audio Coding 3
Параметр Endianness формата              : Big
Идентификатор кодека                     : ac-3
Продолжительность                        : 2 ч. 23 м.
Вид битрейта                             : Постоянный
Битрейт                                  : 448 Кбит/сек
Каналы                                   : 6 каналов
Расположение каналов                     : Front: L C R, Side: L R, LFE
Частота                                  : 48,0 КГц
Частота кадров                           : 31,250 кадров/сек (1536 spf)
Битовая глубина                          : 16 бит
Метод сжатия                             : С потерями
Размер потока                            : 461 Мбайт (9%)
Service kind                             : Complete Main
Default                                  : Inherited From: 2
Alternate group                          : 1
Дата кодирования                         : UTC 2017-03-23 18:52:56
Дата пометки                             : UTC 2017-03-23 18:58:03
Fallback To                              : 2

Скриншоты





Less time searching
more time doing

Toomac has more than 1500 other beautifully designed tools in one collection. No ads, no in-app purchases, no paying for updates. Just apps, fully unlocked. Toomac is $9.99/month. You get an entire week free to try it out.


Get started Free trial for 7 days.

Tom and Jerry / Том и Джерри [1940-1958 г., Рисованная анимация, Комедия, HDRip 1080p-LQ]

Powered by TorrentPier II © Meithar, TorrentPier II Team