The Grand Tour / Гранд Тур (Сезон 1, серия 1-13(13)) [2016 г., Реальное ТВ, Юмор, WEBRip 720p]

КОММЕНТАРИИ

Likes



The Grand Tour / Гранд Тур

Сезон 1, серия 1-13(13)
-
Год выпуска: 2016
Производство: Amazon Studios
Жанр: Реальное ТВ, Юмор
Продолжительность: ~01:00:00 серия
Перевод: Многоголосый закадровый, профессиональный
Субтитры: отсутствуют

-В ролях: Джереми Кларксон, Ричард Хаммонд, Джеймс Мэй
Описание:
Предлагаем вашему вниманию долгожданный многими фанатами автомобилей проект с легендарными ведущими Джереми Кларксоном, Джеймом Мэйем и Ричардом Хаммондом. В центре внимания проекта оказываются автомобили со всего света. Ведущие отправляются в большое путешествие по миру, чтобы найти раритетные модели авто или же невероятные суперкары. В каждом новом городе будет снят очередной эпизод этого шоу, а ведущие проведут тест драйв местных автомобилей, рассказав о них кое-что по-настоящему интересное.

-
Качество: WEBRip 720p
Исходник: nnmclub
Формат: M4V
Видео: AVC, 1280x720 (16:9), ~3500 kbps, 24 fps
Аудио #1: AAC, 2 ch, ~329 kbps, 48 kHz | Русский
Аудио #2: AAC, 2 ch, ~316 kbps, 48 kHz | Английский
Аудио #3: AC3, 2 ch, ~192 kbps, 48 kHz | Русский
Аудио #4:, AC3, 2 ch, ~192 kbps, 48 kHz | Английский

Список серий


1. The Holy Trinity / «Святая троица»
2. Operation Desert Stumble / «Операция: «Стычка в пустыне»»
3. Opera, Arts, and Donuts aka The Return Home / «Опера, живопись и пончики»
4. Enviro-mental / «Энвайронментализм»
5. Moroccan Roll / «Марокканский заезд»
6. Happy Finnish Christmas / «Финское Рождество»
7. The Beach (Buggy) Boys - Part 1 / «Втроём на пляжных багги: Часть 1»
8. The Beach (Buggy) Boys - Part 2 / «Втроём на пляжных багги: Часть 2»
9. Berks to the Future / «С дураками в будущее»
10. Dumb Fight at the O.K. Coral / «Дурацкая драка близ коралла О-Кей»
11. Italian Lessons / «Итальянские уроки»
12. [Censored] to [Censored] / «[Зацензурено] в [Зацензурено]»
13. Past v Future / «Прошлое против будущего»

MI

Общее
Полное имя                               : /Volumes/CLOUD/The Grand Tour S01.720p/The.Grand.Tour.S01E13.m4v
Формат                                   : MPEG-4
Идентификатор кодека                     : M4V  (M4V /M4A /mp42/isom)
Размер файла                             : 1,97 Гбайт
Продолжительность                        : 1 ч. 1 м.
Режим общего битрейта                    : Переменный
Общий поток                              : 4562 Кбит/сек
Коллекция                                : Гранд Тур / The Grand Tour
Сезон                                    : 1
Альбом                                   : 1
Часть                                    : 13
Трек                                     : Гранд Тур / The Grand Tour
Исполнитель                              : Джереми Кларксон, Ричард Хаммонд, Джеймс Мэй
Жанр                                     : Реальное ТВ, Юмор
Тип содержимого                          : TV Show
Описание                                 : Предлагаем вашему вниманию долгожданный многими фанатами автомобилей проект с легендарными ведущими Джереми Кларксоном, Джеймом Мэйем и Ричардом Хаммондом. В центре внимания проекта оказываются автомобили со всего света. Ведущие отправляются в большое путешествие по миру, чтобы найти раритетные модели авто или же невероятные суперкары. В каждом новом городе будет снят очередной эпизод этого шоу, а ведущие проведут тест драйв местных автомобилей, рассказав о них кое-что по-настоящему интересное.
Дата записи                              : 2016
Дата кодирования                         : UTC 2017-03-16 02:02:35
Дата пометки                             : UTC 2017-03-16 02:06:44
Обложка                                  : Yes
Видео
Идентификатор                            : 1
Формат                                   : AVC
Формат/Информация                        : Advanced Video Codec
Профиль формата                          : [email protected]
Параметр CABAC формата                   : Да
Параметр ReFrames формата                : 3 кадра
Идентификатор кодека                     : avc1
Идентификатор кодека/Информация          : Advanced Video Coding
Продолжительность                        : 1 ч. 1 м.
Битрейт                                  : 3500 Кбит/сек
Ширина                                   : 1280 пикселей
Высота                                   : 720 пикселей
Соотношение сторон                       : 16:9
Режим частоты кадров                     : Переменный
Частота кадров                           : 23,976 кадра/сек
Минимальная частота кадров               : 23,810 кадра/сек
Максимальная частота кадров              : 24,390 кадра/сек
Цветовое пространство                    : YUV
Субдискретизация насыщенности            : 4:2:0
Битовая глубина                          : 8 бит
Тип развёртки                            : Прогрессивная
Бит/(Пиксели*Кадры)                      : 0.158
Размер потока                            : 1,53 Гбайт (77%)
Библиотека кодирования                   : x264 core 116 r2019M 9cc407d
Настройки программы                      : cabac=1 / ref=3 / deblock=1:0:0 / analyse=0x3:0x133 / me=hex / subme=7 / psy=1 / psy_rd=1.00:0.20 / mixed_ref=1 / me_range=16 / chroma_me=1 / trellis=1 / 8x8dct=1 / cqm=0 / deadzone=21,11 / fast_pskip=1 / chroma_qp_offset=-3 / threads=12 / sliced_threads=0 / nr=0 / decimate=1 / interlaced=0 / bluray_compat=0 / constrained_intra=0 / bframes=3 / b_pyramid=1 / b_adapt=2 / b_bias=0 / direct=3 / weightb=1 / open_gop=0 / weightp=2 / keyint=230 / keyint_min=23 / scenecut=40 / intra_refresh=0 / rc_lookahead=40 / rc=abr / mbtree=1 / bitrate=3500 / ratetol=1.0 / qcomp=0.60 / qpmin=10 / qpmax=51 / qpstep=4 / ip_ratio=1.40 / aq=1:1.00
Язык                                     : English
Дата кодирования                         : UTC 2017-03-16 02:02:35
Дата пометки                             : UTC 2017-03-16 02:06:43
Аудио #1
Идентификатор                            : 2
Формат                                   : AAC
Формат/Информация                        : Advanced Audio Codec
Профиль формата                          : LC
Идентификатор кодека                     : 40
Продолжительность                        : 1 ч. 1 м.
Вид битрейта                             : Переменный
Битрейт                                  : 329 Кбит/сек
Максимальный битрейт                     : 497 Кбит/сек
Каналы                                   : 2 канала
Расположение каналов                     : Front: L R
Частота                                  : 48,0 КГц
Частота кадров                           : 46,875 кадров/сек (1024 spf)
Метод сжатия                             : С потерями
Размер потока                            : 146 Мбайт (7%)
Default                                  : Да
Alternate group                          : 1
Дата кодирования                         : UTC 2017-03-16 02:02:35
Дата пометки                             : UTC 2017-03-16 02:06:43
Fallback From                            : 3
Аудио #2
Идентификатор                            : 3
Формат                                   : AC-3
Формат/Информация                        : Audio Coding 3
Параметр Endianness формата              : Big
Идентификатор кодека                     : ac-3
Продолжительность                        : 1 ч. 1 м.
Вид битрейта                             : Постоянный
Битрейт                                  : 192 Кбит/сек
Каналы                                   : 2 канала
Расположение каналов                     : Front: L R
Частота                                  : 48,0 КГц
Частота кадров                           : 31,250 кадров/сек (1536 spf)
Битовая глубина                          : 16 бит
Метод сжатия                             : С потерями
Размер потока                            : 85,1 Мбайт (4%)
Service kind                             : Complete Main
Default                                  : Да
Alternate group                          : 1
Дата кодирования                         : UTC 2017-03-16 02:02:35
Дата пометки                             : UTC 2017-03-16 02:06:43
Fallback To                              : 2
Аудио #3
Идентификатор                            : 4
Формат                                   : AAC
Формат/Информация                        : Advanced Audio Codec
Профиль формата                          : LC
Идентификатор кодека                     : 40
Продолжительность                        : 1 ч. 1 м.
Вид битрейта                             : Переменный
Битрейт                                  : 316 Кбит/сек
Максимальный битрейт                     : 496 Кбит/сек
Каналы                                   : 2 канала
Расположение каналов                     : Front: L R
Частота                                  : 48,0 КГц
Частота кадров                           : 46,875 кадров/сек (1024 spf)
Метод сжатия                             : С потерями
Размер потока                            : 140 Мбайт (7%)
Default                                  : Да
Alternate group                          : 1
Дата кодирования                         : UTC 2017-03-16 02:02:35
Дата пометки                             : UTC 2017-03-16 02:06:43
Fallback From                            : 5
Аудио #4
Идентификатор                            : 5
Формат                                   : AC-3
Формат/Информация                        : Audio Coding 3
Параметр Endianness формата              : Big
Идентификатор кодека                     : ac-3
Продолжительность                        : 1 ч. 1 м.
Вид битрейта                             : Постоянный
Битрейт                                  : 192 Кбит/сек
Каналы                                   : 2 канала
Расположение каналов                     : Front: L R
Частота                                  : 48,0 КГц
Частота кадров                           : 31,250 кадров/сек (1536 spf)
Битовая глубина                          : 16 бит
Метод сжатия                             : С потерями
Размер потока                            : 85,1 Мбайт (4%)
Service kind                             : Complete Main
Default                                  : Да
Alternate group                          : 1
Дата кодирования                         : UTC 2017-03-16 02:02:35
Дата пометки                             : UTC 2017-03-16 02:06:43
Fallback To                              : 4

Скриншоты





Less time searching
more time doing

Toomac has more than 1500 other beautifully designed tools in one collection. No ads, no in-app purchases, no paying for updates. Just apps, fully unlocked. Toomac is $9.99/month. You get an entire week free to try it out.


Get started Free trial for 7 days.

The Grand Tour / Гранд Тур (Сезон 1, серия 1-13(13)) [2016 г., Реальное ТВ, Юмор, WEBRip 720p]

Powered by TorrentPier II © Meithar, TorrentPier II Team