Suits / Форс-мажоры [Сезон 6] [2016 г., США, Драма, Комедия, WEB-DL HD (1080p)] [NewStudio]

КОММЕНТАРИИ

Likes


Suits / Форс-мажоры
«Two lawyers. One degree»
- Год выпуска: 2016
Производство: США / Hypnotic, Universal Cable Productions, Dutch Oven
Жанр: драма, комедия
Продолжительность: ~00:42:00 серия
Перевод: Профессиональный, двухголосый закадровый - NewStudio
Русские субтитры: нет
Режиссер: Антон Кроппер, Кевин Брэй, Майкл Смит
В ролях: Гэбриел Махт, Патрик Джей Адамс, Джина Торрес, Рик Хоффман, Меган Маркл, Сара Рафферти, Аманда Шулл, Макс Топплин, Дэвид Костабайл, Д.Б. Вудсайд и др.
Художники: Тамара Деверелл, Клайв Томассон, Линдси Хермер-Белл и др.
Композитор: Кристофер Тинг
Операторы: Дэн Столофф, Джон Б. Аронсон, Альвин Кумст и др.
Описание:
«Форс-мажоры» — сериал о тандеме профессионального юриста Харви Спектра и студента-лжеца Майка Росса.
Майк и Харви – это команда победителей. Хотя Майк и гений, ему все еще надо много чего узнать о законах. Харви кажется бесстрастной и хладнокровной акулой бизнеса, однако, сочувствие клиентам и озабоченность их делами Майка, поможет Харви вспомнить, зачем он в свое время пришел в юриспруденцию. Другими союзниками Майка в фирме станет лучший помощник юриста в компании Рейчел и здравомыслящая ассистентка Харви Донна. Доказывая, что они неутомимая парочка и бесценны для фирмы, Майку и Харви приходится хранить свою тайну от всех, в том числе и от начальника Харви, Джессики и заклятого врага Харви Луиса, который, кажется, поставил себе целью сделать жизнь Майкла невыносимой.

Доп. информация: Возраст: 16+ (зрителям, достигшим 16 лет)
Видео кодек: MPEG-4
Качество: WEB-DL 1080p
Формат: MP4 Видео: AVC, 1920x1080, 16:9, ~5215 Кбит/сек, 25 кадров/сек
Аудио 1 – Русский: AAC, 48,0 kHz, 2 ch, 128 kbps — двухголосый закадровый
Аудио 2 – English: AAC, 48,0 kHz, 2 ch, 128 kbps — оригинал

Список серий

01. To Trouble / За беду
02. Accounts Payable / Счета к оплате
03. Back on the Map / Снова на карте
04. Turn / Поворот
05. Trust / Доверие
06. Spain / Испания
07. Shake the Trees / Перетрясти деревья
08. Borrowed Time / Взаймы у времени
09. The Hand That Feeds You / Рука, которая тебя кормит
10. P. S. L. / П. С. Л.
11. She's Gone / Больше ее здесь нет
12. The Painting / Картина
13. Teeth, Nose, Teeth / Зубы, нос, зубы
14. Admission of Guilt / Признание вины
15. Quid Pro Quo / Кви про кво
16. Character and Fitness / Профессиональная пригодность

Mediainfo

Общее
Формат : MPEG-4
Профиль формата : Base Media
Идентификатор кодека : isom (isom/iso2/avc1/mp41)
Размер файла : 1,57 Гбайт
Продолжительность : 41 м. 59 с.
Режим общего битрейта : Переменный
Общий поток : 5347 Кбит/сек
Название фильма : Suits.S06E01.1080p
Дата кодирования : UTC 2017-03-02 21:21:47
Дата пометки : UTC 2017-03-02 21:21:47
Программа кодирования : Lavf51.12.1
Видео
Идентификатор : 1
Формат : AVC
Формат/Информация : Advanced Video Codec
Профиль формата : [email protected]
Параметр CABAC формата : Нет
Параметр ReFrames формата : 1 кадр
Параметр GOP формата : M=1, N=12
Идентификатор кодека : avc1
Идентификатор кодека/Информация : Advanced Video Coding
Продолжительность : 41 м. 58 с.
Вид битрейта : Переменный
Битрейт : 5215 Кбит/сек
Максимальный битрейт : 7500 Кбит/сек
Ширина : 1920 пикселей
Высота : 1080 пикселей
Соотношение сторон : 16:9
Режим частоты кадров : Постоянный
Частота кадров : 25,000 кадров/сек
Частота кадров в оригинале : 24,000 кадра/сек
Цветовое пространство : YUV
Субдискретизация насыщенности : 4:2:0
Битовая глубина : 8 бит
Тип развёртки : Прогрессивная
Бит/(Пиксели*Кадры) : 0.101
Размер потока : 1,53 Гбайт (98%)
Язык : English
Дата кодирования : UTC 2017-03-02 21:21:47
Дата пометки : UTC 2017-03-02 21:21:47
Аудио
Идентификатор : 2
Формат : AAC
Формат/Информация : Advanced Audio Codec
Профиль формата : LC
Идентификатор кодека : 40
Продолжительность : 41 м. 59 с.
Вид битрейта : Переменный
Битрейт : 128 Кбит/сек
Каналы : 2 канала
Расположение каналов : Front: L R
Частота : 44,1 КГц
Частота кадров : 43,066 кадра/сек (1024 spf)
Метод сжатия : С потерями
Размер потока : 38,4 Мбайт (2%)
Язык : Russian
Дата кодирования : UTC 2017-03-02 21:21:47
Дата пометки : UTC 2017-03-02 21:21:47

Скриншоты


Размер .torrent файла 356 KB

Registered [ 2017-06-24 12:14 ] · 60677A757F44E511B96C432D95E48C93693CE80E
checked
Размер файлов 35.47 GB
Инструкции / FAQКак скачать раздачуРейтинг упал ниже 0,3?Seed-бонусы за сидированиеQA по скорости скачивания

Suits / Форс-мажоры [Сезон 6] [2016 г., США, Драма, Комедия, WEB-DL HD (1080p)] [NewStudio]

      

Comments

 
Heads necessary to send messages to enable JavaScript

Less time searching
more time doing

Toomac has more than 1500 other beautifully designed tools in one collection. No ads, no in-app purchases, no paying for updates. Just apps, fully unlocked. Toomac is $9.99/month. You get an entire week free to try it out.


Get started Free trial for 7 days



Powered by TorrentPier II © Meithar, TorrentPier II Team