Limitless / Области тьмы [2011 г., Фантастика, триллер, детектив] [BDRip 1080] [Unrated Extended Cut]

КОММЕНТАРИИ

Likes


Limitless / Области тьмы
[Unrated Extended Cut]
- Год выпуска: 2011
Страна: США
Жанр: Фантастика, триллер, детектив
Продолжительность: 01:45:33
Перевод: Профессиональный (полное дублирование)
Русские субтитры: есть
Режиссер: Нил Бёргер / Neil Burger
В ролях: Брэдли Купер, Роберт Де Ниро, Эбби Корниш, Эндрю Ховард, Анна Фрил, Джонни Витуорт, Томас Арана, Роберт Джон Бёрк, Даррен Голдштейн, Нед Эйзенберг
Описание:
Нью-йоркский писатель Эдди, желая преодолеть чёрную полосу в жизни, принимает засекреченный препарат под названием NZT. Таблетка выводит мозг парня на работу в нереальной мощности. Этот творческий наркотик меняет всю жизнь Эдди, за короткий срок он зарабатывает кучу денег, но скоро начинает страдать от зловещих побочных эффектов препарата. А когда пытается найти других NZT-гениев, чтобы понять, как можно справиться с этим пристрастием, он узнает страшную правду…

Качество: BDRip 1080p
Формат: MP4
Cубтитры 1: Русские (F-JAY)
Cубтитры 2: Английские SDH
Чаптеры: есть
Видео: AVC / 8646 Кбит/сек / 1920x800 / 24,000 кадра/сек / 16:9 / High Profile 4.0
Аудио #1: Русский / AAC / 6ch / 48 kHz / 274 kbps / Stereo
Аудио #2: English / AC3 / 6ch / 48 kHz / 384 kbps / 16bit / Surround

Скриншоты


Mediainfo

Общее
Полное имя : /Volumes/MEDIA/Области тьмы – Limitless [Unrated Extended Cut].mp4
Формат : MPEG-4
Профиль формата : Base Media / Version 2
Идентификатор кодека : mp42 (mp42)
Размер файла : 6,38 Гбайт
Продолжительность : 1 ч. 45 м.
Общий поток : 8646 Кбит/сек
Коллекция : Области тьмы / Limitless [Unrated Extended Cut]
Трек : Области тьмы / Limitless [Unrated Extended Cut]
Режиссёр : Нил Бёргер / Neil Burger
Содиректор : codirector
Исполнитель : Брэдли Купер, Роберт Де Ниро, Эбби Корниш, Эндрю Ховард, Анна Фрил, Джонни Витуорт, Томас Арана, Ро퀠톑톀킍킴킻₸髐菑뿐뗐胑‬ꃐ뻐뇐뗐胑苑퀠킔₵鷐룐胑뻐‬귐뇐뇐룐퀠킚톾킀킽톸Ⲉ퀠킭킽톴톀₎ꗐ뻐닐냐
Студия-производитель : studio
Жанр : Thriller
Тип содержимого : Unknown Type
Описание : Области тьмы, Limitless
Дата кодирования : UTC 2017-03-04 21:48:34
Дата пометки : UTC 2017-03-04 21:48:34
Примечание : Области тьмы, Limitless
LongDescription : Нью-йоркский писатель Эдди, желая преодолеть чёрную полосу в жизни, принимает засекреченный препарат под названием NZT. Таблетка выводит мозг парня на работу в нереальной мощности. Этот творческий наркотик меняет всю жизнь Эдди, за короткий срок он зарабатывает кучу денег, но скоро начинает страдать от зловещих побочных эффектов препарата. А когда пытается найти других NZT-гениев, чтобы понять, как можно справиться с этим пристрастием, он узнает страшную правду…
Видео
Идентификатор : 1
Формат : AVC
Формат/Информация : Advanced Video Codec
Профиль формата : [email protected]
Параметр CABAC формата : Да
Параметр ReFrames формата : 2 кадра
Параметр GOP формата : M=3, N=30
Режим смешивания : Container [email protected]
Идентификатор кодека : avc1
Идентификатор кодека/Информация : Advanced Video Coding
Продолжительность : 1 ч. 45 м.
Битрейт : 7979 Кбит/сек
Ширина : 1920 пикселей
Высота : 800 пикселей
Соотношение сторон : 2,40:1
Режим частоты кадров : Постоянный
Частота кадров : 24,000 кадра/сек
Цветовое пространство : YUV
Субдискретизация насыщенности : 4:2:0
Битовая глубина : 8 бит
Тип развёртки : Прогрессивная
Бит/(Пиксели*Кадры) : 0.216
Размер потока : 5,88 Гбайт (92%)
Язык : English
Дата кодирования : UTC 1951-03-04 21:48:34
Дата пометки : UTC 1951-03-04 21:48:34
Аудио #1
Идентификатор : 2
Формат : AAC
Формат/Информация : Advanced Audio Codec
Профиль формата : LC
Идентификатор кодека : 40
Продолжительность : 1 ч. 45 м.
Вид битрейта : Постоянный
Битрейт : 274 Кбит/сек
Каналы : 6 каналов
Расположение каналов : Front: L C R, Side: L R, LFE
Частота : 48,0 КГц
Частота кадров : 46,875 кадров/сек (1024 spf)
Метод сжатия : С потерями
Размер потока : 207 Мбайт (3%)
Заголовок : Stereo
Язык : English
Default : Да
Alternate group : 1
Дата кодирования : UTC 1951-03-04 21:48:34
Дата пометки : UTC 1951-03-04 21:48:34
Аудио #2
Идентификатор : 3
Формат : AC-3
Формат/Информация : Audio Coding 3
Расширение режима : CM (complete main)
Параметр Endianness формата : Big
Идентификатор кодека : ac-3
Продолжительность : 1 ч. 45 м.
Вид битрейта : Постоянный
Битрейт : 384 Кбит/сек
Каналы : 6 каналов
Расположение каналов : Front: L C R, Side: L R, LFE
Частота : 48,0 КГц
Частота кадров : 31,250 кадров/сек (1536 spf)
Битовая глубина : 16 бит
Метод сжатия : С потерями
Размер потока : 290 Мбайт (4%)
Заголовок : Surround
Язык : English
Default : Нет
Alternate group : 1
Дата кодирования : UTC 1951-03-04 21:48:34
Дата пометки : UTC 1951-03-04 21:48:34

Релиз подготовлен для просмотра на Apple TV, iPad, iPhone, iPod Touch.
Для просмотра данного релиза на компьютере с ОС Windows рекомендуется использовать VLC media player




Less time searching
more time doing

Toomac has more than 1500 other beautifully designed tools in one collection. No ads, no in-app purchases, no paying for updates. Just apps, fully unlocked. Toomac is $9.99/month. You get an entire week free to try it out.


Get started Free trial for 7 days.

Limitless / Области тьмы [2011 г., Фантастика, триллер, детектив] [BDRip 1080] [Unrated Extended Cut]

Powered by TorrentPier II © Meithar, TorrentPier II Team