Скорпион / Scorpion / Сезон: 1 / Серии: 1-22 из 22 [2014, США, боевик, драма, WEB-DL 720p] MVO (BaibaKo) + Original

КОММЕНТАРИИ

Likes


Scorpion / Скорпион

Сезон: 1 – Серии: 1-22 из 22- Год выпуска: 2014
Страна: США
Жанр: Боевик, драма
Продолжительность: ~ 00:41:30 серия
Перевод: Профессиональный (многоголосый, закадровый) Baibako
Режиссер: Гэри Фледер, Дуайт Х. Литтл, Бобби Рот \ Gary Fleder, Dwight H. Little, Bobby Roth
В ролях: Элиес Габел, Кэтрин МакФи, Эри Стидэм, Эдди Кэй Томас, Джейдин Вонг, Эмили Робинсон, Роберт Патрик, Рис Риос и др.
Описание:
Сюжет основан на реальных событиях. Это история об эксцентричном гении и его группе вундеркиндов. Они являются аналитическим центром, работающим на службу национальной безопасности, и их задача — разбираться со сложными угрозами современности.

Качество: WEB-DL 720p
Формат: MP4
Видео: AVC, 1280x720, 4881 Кбит/сек, 23.976 кадр/сек
Аудио #1: Русский, AAC, 274 kbps, 6ch, 48kHz, Stereo
Аудио #2: English, AC3, 384 kbps, 6ch, 48 kHz, 16bit, Surround

Список серий

1. «Pilot» / «Пилот»
2. «Single Point of Failure» / «Точка вывода из строя»
3. «A Cyclone» / «Циклон»
4. «Plutonium Is Forever» / «Плутоний навсегда»
5. «Shorthanded» / «Нуждающийся в помощи»
6. «True Colors» / «Настоящие цвета» /
7. «Father's Day» / «День отца»
8. «Risky Business» / «Рискованное дело»
9. «Rogue Element» / «Ложный элемент»
10. «Talismans» / «Талисманы»
11.«Revenge» / «Месть»
12. «Dominoes» / «Домино»
13. «Kill Screen» / «Убивающий экран»
14. «Charades» / «Шарады»
15. «Forget Me Nots» / «Незабудки»
16. «Love Boat» / «Лодка любви»
17. «Going South» / «На юг»
18. «Once Bitten, Twice Die» / «Один раз укусили, умрёшь дважды»
19. «Young Hearts Spark Fire» / «Юные сердца искрятся огнём»
20. «Crossroads» / «Перекрёсток»
21. «Cliffhanger» / «Клиффхэнгер»
22. «Postcards from the Edge» / «Открытки с края»

Mediainfo

Общее
Полное имя : /Volumes/MEDIA/_Scorpion (S01)/Scorpion.s01e01.HD720p.mp4
Формат : MPEG-4
Профиль формата : Base Media / Version 2
Идентификатор кодека : mp42 (mp42)
Размер файла : 1,61 Гбайт
Продолжительность : 41 м. 30 с.
Общий поток : 5545 Кбит/сек
Содиректор : codirector
Студия-производитель : studio
Тип содержимого : Unknown Type
Дата кодирования : UTC 2017-03-04 16:35:57
Дата пометки : UTC 2017-03-04 16:35:57
Видео
Идентификатор : 1
Формат : AVC
Формат/Информация : Advanced Video Codec
Профиль формата : [email protected]
Параметр CABAC формата : Да
Параметр ReFrames формата : 2 кадра
Параметр GOP формата : M=3, N=30
Режим смешивания : Container [email protected]
Идентификатор кодека : avc1
Идентификатор кодека/Информация : Advanced Video Coding
Продолжительность : 41 м. 29 с.
Битрейт : 4881 Кбит/сек
Ширина : 1280 пикселей
Высота : 720 пикселей
Соотношение сторон : 16:9
Режим частоты кадров : Постоянный
Частота кадров : 24,000 кадра/сек
Цветовое пространство : YUV
Субдискретизация насыщенности : 4:2:0
Битовая глубина : 8 бит
Тип развёртки : Прогрессивная
Бит/(Пиксели*Кадры) : 0.221
Размер потока : 1,41 Гбайт (88%)
Язык : English
Дата кодирования : UTC 1951-03-04 16:35:57
Дата пометки : UTC 1951-03-04 16:35:57
Аудио #1
Идентификатор : 2
Формат : AAC
Формат/Информация : Advanced Audio Codec
Профиль формата : LC
Идентификатор кодека : 40
Продолжительность : 41 м. 30 с.
Вид битрейта : Постоянный
Битрейт : 274 Кбит/сек
Каналы : 6 каналов
Расположение каналов : Front: L C R, Side: L R, LFE
Частота : 48,0 КГц
Частота кадров : 46,875 кадров/сек (1024 spf)
Метод сжатия : С потерями
Размер потока : 81,2 Мбайт (5%)
Заголовок : Stereo
Язык : English
Default : Да
Alternate group : 1
Дата кодирования : UTC 1951-03-04 16:35:57
Дата пометки : UTC 1951-03-04 16:35:57
Аудио #2
Идентификатор : 3
Формат : AC-3
Формат/Информация : Audio Coding 3
Расширение режима : CM (complete main)
Параметр Endianness формата : Big
Идентификатор кодека : ac-3
Продолжительность : 41 м. 30 с.
Вид битрейта : Постоянный
Битрейт : 384 Кбит/сек
Каналы : 6 каналов
Расположение каналов : Front: L C R, Side: L R, LFE
Частота : 48,0 КГц
Частота кадров : 31,250 кадров/сек (1536 spf)
Битовая глубина : 16 бит
Метод сжатия : С потерями
Размер потока : 114 Мбайт (7%)
Заголовок : Surround
Язык : English
Default : Нет
Alternate group : 1
Дата кодирования : UTC 1951-03-04 16:35:57
Дата пометки : UTC 1951-03-04 16:35:57

Скриншоты


Размер .torrent файла 357 KB

Registered [ 2017-06-24 12:16 ] · 05F1F2AC78888C5BFC64580DADBC976B5BA2AF21
checked
Размер файлов 35.51 GB
Инструкции / FAQКак скачать раздачуРейтинг упал ниже 0,3?Seed-бонусы за сидированиеQA по скорости скачивания

Скорпион / Scorpion / Сезон: 1 / Серии: 1-22 из 22 [2014, США, боевик, драма, WEB-DL 720p] MVO (BaibaKo) + Original

      

Comments

 
Heads necessary to send messages to enable JavaScript

Less time searching
more time doing

Toomac has more than 1500 other beautifully designed tools in one collection. No ads, no in-app purchases, no paying for updates. Just apps, fully unlocked. Toomac is $9.99/month. You get an entire week free to try it out.


Get started Free trial for 7 days



Powered by TorrentPier II © Meithar, TorrentPier II Team