Scorpion / Скорпион (Сезон: 2 / Серии: 1-24 из 24) [2015, Боевик, драма, WEB-DLRip]

КОММЕНТАРИИ

Likes


Scorpion / Скорпион
Сезон: 2 / Серии: 1-24 из 24
- Страна: США
Жанр: Боевик, драма
Год выпуска: 2015
Продолжительность: ~ 00:43:00
Перевод: Профессиональный (многоголосый, закадровый) Baibako
Реклама: Полностью отсутствует
Режиссер: Гэри Фледер, Дуайт Х. Литтл, Бобби Рот
В ролях: Элиес Габел, Кэтрин МакФи, Эри Стидэм, Эдди Кэй Томас, Джейдин Вонг, Эмили Робинсон, Роберт Патрик, Рис Риос и др.
Описание:
Сюжет основан на реальных событиях. Это история об эксцентричном гении и его группе вундеркиндов. Они являются аналитическим центром, работающим на службу национальной безопасности, и их задача — разбираться со сложными угрозами современности.

Качество: WEB-DLRip
Формат видео: M4V
Видео: AVC, SD 720x400 (16:9), 23,976 fps, ~1282kbps
Аудио #1: Русский, AAC, 48 kHz, 2 ch, 164 kbps, Stereo
Аудио #2: English, AC-3, 48 kHz, 2 ch, 224 kbps, Stereo
Субтитры: отсутствуют

Список серий

01. Спутник любви
02. Свободная Куба
03. Рыбное филе
04. Роботы
05. Супер Смешные Ребята
06. Технологии, наркотики и рок-н-ролл
07. Взбесившийся поезд
08. Зона 51
09. США против ООН против Великобритании
10. Прибытие и отбытие
11. Испытание колледжем
12. Прорыв плотины
13. Белая Мгла
14. Солнечная пушка
15. Бомба
16. Трещины
17. Адаптация
18. Быстрые и заумные
19. Сердце
20. Вызов в Джибути
21. Шум и гам
22. Форт Нокс
23. Операция в Чернобыле
24. Тоби или не Тоби

Mediainfo

Общее
Полное имя : D:\_Scorpion (S02)\Scorpion.S02E01.m4v
Формат : MPEG-4
Профиль формата : Base Media / Version 2
Идентификатор кодека : mp42 (isom/iso2/avc1/mp41)
Размер файла : 390 Мбайт
Продолжительность : 42 м. 30 с.
Режим общего битрейта : Переменный
Общий поток : 1282 Кбит/сек
Дата кодирования : UTC 2017-03-03 18:11:42
Дата пометки : UTC 2017-03-03 18:11:42
Программа кодирования : HandBrake 0.10.2 2015060900
Видео
Идентификатор : 1
Формат : AVC
Формат/Информация : Advanced Video Codec
Профиль формата : [email protected]
Параметр CABAC формата : Да
Параметр ReFrames формата : 4 кадра
Идентификатор кодека : avc1
Идентификатор кодека/Информация : Advanced Video Coding
Продолжительность : 42 м. 30 с.
Битрейт : 1282 Кбит/сек
Ширина : 720 пикселей
Высота : 400 пикселей
Соотношение сторон : 16:9
Режим частоты кадров : Переменный
Частота кадров : 23,976 кадра/сек
Минимальная частота кадров : 23,974 кадра/сек
Максимальная частота кадров : 23,981 кадра/сек
Цветовое пространство : YUV
Субдискретизация насыщенности : 4:2:0
Битовая глубина : 8 бит
Тип развёртки : Прогрессивная
Бит/(Пиксели*Кадры) : 0.129
Размер потока : 270 Мбайт (69%)
Библиотека кодирования : x264 core 142 r2479 dd79a61
Настройки программы : cabac=1 / ref=3 / deblock=1:0:0 / analyse=0x3:0x113 / me=hex / subme=7 / psy=1 / psy_rd=1.00:0.00 / mixed_ref=1 / me_range=16 / chroma_me=1 / trellis=1 / 8x8dct=1 / cqm=0 / deadzone=21,11 / fast_pskip=1 / chroma_qp_offset=-2 / threads=6 / lookahead_threads=1 / sliced_threads=0 / nr=0 / decimate=1 / interlaced=0 / bluray_compat=0 / constrained_intra=0 / bframes=3 / b_pyramid=2 / b_adapt=1 / b_bias=0 / direct=1 / weightb=1 / open_gop=0 / weightp=2 / keyint=240 / keyint_min=24 / scenecut=40 / intra_refresh=0 / rc_lookahead=40 / rc=crf / mbtree=1 / crf=20.0 / qcomp=0.60 / qpmin=0 / qpmax=69 / qpstep=4 / vbv_maxrate=25000 / vbv_bufsize=31250 / crf_max=0.0 / nal_hrd=none / filler=0 / ip_ratio=1.40 / aq=1:1.00
Дата кодирования : UTC 2017-03-03 18:11:42
Дата пометки : UTC 2017-03-03 18:11:42
Цветовой диапазон : Limited
Основные цвета : BT.601 NTSC
Характеристики трансфера : BT.709
Коэффициенты матрицы : BT.601
Аудио #1
Идентификатор : 2
Формат : AAC
Формат/Информация : Advanced Audio Codec
Профиль формата : LC
Идентификатор кодека : 40
Продолжительность : 42 м. 30 с.
Вид битрейта : Переменный
Битрейт : 162 Кбит/сек
Каналы : 2 канала
Расположение каналов : Front: L R
Частота : 48,0 КГц
Частота кадров : 46,875 кадров/сек (1024 spf)
Метод сжатия : С потерями
Размер потока : 49,2 Мбайт (13%)
Заголовок : Stereo / Stereo
Default : Да
AlternateGroup/String : 1
Дата кодирования : UTC 2017-03-03 18:11:42
Дата пометки : UTC 2017-03-03 18:11:42
Аудио #2
Идентификатор : 3
Формат : AC-3
Формат/Информация : Audio Coding 3
Параметр Endianness формата : Big
Идентификатор кодека : ac-3
Продолжительность : 42 м. 30 с.
Вид битрейта : Постоянный
Битрейт : 224 Кбит/сек
Каналы : 2 канала
Расположение каналов : Front: L R
Частота : 48,0 КГц
Частота кадров : 31,250 кадров/сек (1536 spf)
Битовая глубина : 16 бит
Метод сжатия : С потерями
Размер потока : 68,1 Мбайт (17%)
Заголовок : Stereo / Stereo
ServiceKind/String : Complete Main
Default : Нет
AlternateGroup/String : 1
Дата кодирования : UTC 2017-03-03 18:11:42
Дата пометки : UTC 2017-03-03 18:11:42

Скриншоты


Размер .torrent файла 25 KB

Registered [ 2017-06-24 12:17 ] · FC50F53A4D8CEB652B7CCDBEAEB5231B925F91D0
checked
Размер файлов 9.23 GB
Инструкции / FAQКак скачать раздачуРейтинг упал ниже 0,3?Seed-бонусы за сидированиеQA по скорости скачивания

Scorpion / Скорпион (Сезон: 2 / Серии: 1-24 из 24) [2015, Боевик, драма, WEB-DLRip]

      

Comments

 
Heads necessary to send messages to enable JavaScript

Less time searching
more time doing

Toomac has more than 1500 other beautifully designed tools in one collection. No ads, no in-app purchases, no paying for updates. Just apps, fully unlocked. Toomac is $9.99/month. You get an entire week free to try it out.


Get started Free trial for 7 days



Powered by TorrentPier II © Meithar, TorrentPier II Team