100 Streets / Сотни улиц [2016, Драма, криминал, BDRip 1080]

КОММЕНТАРИИ

Likes



100 Streets / Сотни улиц- Страна: Великобритания
Жанр: Драма, криминал
Год выпуска: 2016
Продолжительность: 01:33:32
Перевод: Профессиональный многоголосый закадровый (iTunes)
Режиссер: Джим О’Хенлон
В ролях: Джемма Артертон, Идрис Эльба, Том Каллен, Эшли Томас, Кен Стотт, Райан Гейдж, Франц Драмех, Кирстон Вэрэйнг, Чарли Крид-Майлз, Кали Нелле
Описание:
Четыре человека, четыре необычные истории. И все они живут на улицах Лондона.
Качество: BDRip 1080
Формат: MP4
Видео: AVC, 1920x804, ~7.9 Mbps, 24 fps
Аудио #1: AAC, 6 ch, 192 kbps, Stereo - Русский (iTunes)
Аудио #2: AC-3, 6 ch, 384 kbps, 16 bit, Surround - Английский (Оригинал)

Mediainfo

Общее
Полное имя : /Volumes/MEDIA/100.Streets.2016.BDRip.1080p.mp4
Формат : MPEG-4
Профиль формата : Base Media / Version 2
Идентификатор кодека : mp42 (mp42)
Размер файла : 5,55 Гбайт
Продолжительность : 1 ч. 33 м.
Общий поток : 8490 Кбит/сек
Коллекция : 100 Streets
Трек : 100.Streets.2016.BDRip.1080p
Режиссёр : Jim O'Hanlon
Содиректор : codirector
Исполнитель : Idris Elba / Gemma Arterton / Tom Cullen / Franz Drameh / Ryan Gage / Samantha Barks / Emma Rigby / Ken Stott / Charlie Creed-Miles / Steven Mackintosh / Kierston Wareing / Jamie Foreman / Adam Iraki / Lorraine Stanley / Mark Aitken / Andrew Alexander
Сценарист : Leon Butler
Студия-производитель : studio
Жанр : Drama
Тип содержимого : Unknown Type
Описание : Anybody can take a wrong turn.
Дата записи : 2016-11-11
Дата кодирования : UTC 2017-03-08 09:28:48
Дата пометки : UTC 2017-03-08 09:28:48
Обложка : Yes
LongDescription : Four people, four extraordinary stories. All lived out within a hundred London streets.
TVNetworkName : CrossDay Productions Ltd. Green Door Pictures Helicopter Film Services
Видео
Идентификатор : 1
Формат : AVC
Формат/Информация : Advanced Video Codec
Профиль формата : [email protected]
Параметр CABAC формата : Да
Параметр ReFrames формата : 2 кадра
Параметр GOP формата : M=3, N=30
Режим смешивания : Container [email protected]
Идентификатор кодека : avc1
Идентификатор кодека/Информация : Advanced Video Coding
Продолжительность : 1 ч. 33 м.
Битрейт : 7906 Кбит/сек
Ширина : 1920 пикселей
Высота : 804 пикселя
Соотношение сторон : 2,40:1
Режим частоты кадров : Постоянный
Частота кадров : 24,000 кадра/сек
Цветовое пространство : YUV
Субдискретизация насыщенности : 4:2:0
Битовая глубина : 8 бит
Тип развёртки : Прогрессивная
Бит/(Пиксели*Кадры) : 0.213
Размер потока : 5,16 Гбайт (93%)
Язык : English
Дата кодирования : UTC 1951-03-08 09:28:48
Дата пометки : UTC 1951-03-08 09:28:48
Аудио #1
Идентификатор : 2
Формат : AAC
Формат/Информация : Advanced Audio Codec
Профиль формата : LC
Идентификатор кодека : 40
Продолжительность : 1 ч. 33 м.
Вид битрейта : Постоянный
Битрейт : 192 Кбит/сек
Каналы : 6 каналов
Расположение каналов : Front: L C R, Side: L R, LFE
Частота : 48,0 КГц
Частота кадров : 46,875 кадров/сек (1024 spf)
Метод сжатия : С потерями
Размер потока : 128 Мбайт (2%)
Заголовок : Stereo
Язык : English
Default : Да
Alternate group : 1
Дата кодирования : UTC 1951-03-08 09:28:48
Дата пометки : UTC 1951-03-08 09:28:48
Аудио #2
Идентификатор : 3
Формат : AC-3
Формат/Информация : Audio Coding 3
Параметр Endianness формата : Big
Идентификатор кодека : ac-3
Продолжительность : 1 ч. 33 м.
Вид битрейта : Постоянный
Битрейт : 384 Кбит/сек
Каналы : 6 каналов
Расположение каналов : Front: L C R, Side: L R, LFE
Частота : 48,0 КГц
Частота кадров : 31,250 кадров/сек (1536 spf)
Битовая глубина : 16 бит
Метод сжатия : С потерями
Размер потока : 257 Мбайт (5%)
Заголовок : Surround
Язык : English
Service kind : Complete Main
Default : Нет
Alternate group : 1
Дата кодирования : UTC 1951-03-08 09:28:48
Дата пометки : UTC 1951-03-08 09:28:48

Скриншоты


Размер .torrent файла 14 KB

Registered [ 2017-06-24 12:20 ] · C361497F7FD0EDA45138B27E0A93D78C4444B4DD
checked
Размер файлов 5.55 GB
Инструкции / FAQКак скачать раздачуРейтинг упал ниже 0,3?Seed-бонусы за сидированиеQA по скорости скачивания

100 Streets / Сотни улиц [2016, Драма, криминал, BDRip 1080]

      

Comments

 
Heads necessary to send messages to enable JavaScript

Less time searching
more time doing

Toomac has more than 1500 other beautifully designed tools in one collection. No ads, no in-app purchases, no paying for updates. Just apps, fully unlocked. Toomac is $9.99/month. You get an entire week free to try it out.


Get started Free trial for 7 days



Powered by TorrentPier II © Meithar, TorrentPier II Team