Nocturnal Animals / Под покровом ночи [2016 г., Триллер, драма, BDRip 1080p]

КОММЕНТАРИИ

Likes


Nocturnal Animals / Под покровом ночи
«When you love someone you can't just throw it away»
- Год выпуска: 2016
Страна: США
Жанр: Триллер, драма
Продолжительность: 01:56:32
Перевод: Дублированный (Blu-ray CEE)
Режиссер: Том Форд
В ролях: Эми Адамс, Джейк Джилленхол, Майкл Шеннон, Аарон Тейлор-Джонсон, Айла Фишер, Элли Бамбер, Арми Хаммер, Карл Глусман, Роберт Арамайо, Лора Линни
Описание:
У Сьюзен роскошная жизнь в Лос-Анджелесе, прекрасный муж и собственная галерея. Но однажды она получает неожиданную посылку от бывшего супруга — он хотел бы встретиться, но сначала просит прочитать его новый роман. Сьюзен не подозревает, что как только она откроет рукопись, она вернется в прошлое, которое считала надежно укрытым под покровом ночи.

Качество: BDRip
Формат: M4V
Видео: AVC, 1920x800, 2.40:1, 8 000 Kbps, 23.976 (24000/1001) fps
Аудио 1: Русский/Дублированный (Blu-ray CEE), AAC / 2.0 / 160 Kbps / 48.0 KHz
Аудио 2: Английский/Оригинальная дорожка , AAC / 2.0 / 160 Kbps / 48.0 KHz
Аудио 3: Русский/Дублированный (Blu-ray CEE), AC-3 / 5.1 / 640 Kbps / 48.0 KHz
Аудио 4: Английский/Оригинальная дорожка , AC-3 / 5.1 / 640 Kbps / 48.0 KHz

Mediainfo


Общее
Полное имя : /Volumes/MEDIA/Nocturnal Animals (1080p HD).m4v
Формат : MPEG-4
Идентификатор кодека : M4V (M4V /M4A /mp42/isom)
Размер файла : 7,78 Гбайт
Продолжительность : 1 ч. 56 м.
Режим общего битрейта : Переменный
Общий поток : 9595 Кбит/сек
Название фильма : Nocturnal Animals
Исполнитель : Tom Ford
Режиссёр : Том Форд
Исполнитель : Эми Адамс / Джейк Джилленхол / Майкл Шеннон / Аарон Тейлор-Джонсон / Айла Фишер / Элли Бамбер / Арми Хаммер / Карл Глусман / Роберт Арамайо / Лора Линни / Наталья Фищук / Сергей Смирнов / Илья Исаев / Антон Эльдаров / Татьяна Шитова
Сценарист : Том Форд / Остин Райт
Продюсер : Том Форд / Роберт Салерно / Марк Харрис
Студия-производитель : Focus Features
Жанр : Drama
Тип содержимого : Short Film
Описание : У Сьюзен роскошная жизнь в Лос-Анджелесе, прекрасный муж и собственная галерея. Но однажды она получает неожиданную посылку от бывшего супруга - он хотел бы встретиться, но сначала просит прочитать его новый роман. Сьюзен не подозревает, что как только она откроет рукопись, она вернется в прошлое, которое считала надежно укрытым под покровом ночи.
Дата записи : UTC 2016-09-02 08:00:00
Дата кодирования : UTC 2017-03-01 11:04:13
Дата пометки : UTC 2017-03-01 11:11:56
Авторское право : © 2016 Focus Features. All Rights Reserved.
Обложка : Yes
Оценка : None
Title/Sort : Nocturnal Animals
LongDescription : У Сьюзен роскошная жизнь в Лос-Анджелесе, прекрасный муж и собственная галерея. Но однажды она получает неожиданную посылку от бывшего супруга - он хотел бы встретиться, но сначала просит прочитать его новый роман. Сьюзен не подозревает, что как только она откроет рукопись, она вернется в прошлое, которое считала надежно укрытым под покровом ночи.
AppleStoreCatalogID : 1178216312
Vendor : Apple:vendor_id:2016-909898
ContentRating : mpaa|R|400|
Видео #1
Идентификатор : 1
Формат : AVC
Формат/Информация : Advanced Video Codec
Профиль формата : [email protected]
Параметр CABAC формата : Да
Параметр ReFrames формата : 4 кадра
Идентификатор кодека : avc1
Идентификатор кодека/Информация : Advanced Video Coding
Продолжительность : 1 ч. 56 м.
Продолжительность оригинала : 1 ч. 56 м.
Битрейт : 8000 Кбит/сек
Ширина : 1920 пикселей
Высота : 800 пикселей
Соотношение сторон : 2,40:1
Режим частоты кадров : Переменный
Частота кадров : 23,976 (24000/1001) кадра/сек
Минимальная частота кадров : 23,974 кадра/сек
Максимальная частота кадров : 23,981 кадра/сек
Цветовое пространство : YUV
Субдискретизация насыщенности : 4:2:0
Битовая глубина : 8 бит
Тип развёртки : Прогрессивная
Бит/(Пиксели*Кадры) : 0.217
Размер потока : 6,49 Гбайт (83%)
Размер потока оригинала : 6,49 Гбайт (83%)
Заголовок : Main Program
Библиотека кодирования : x264 core 148 r2708 86b7198
Настройки программы : cabac=1 / ref=4 / deblock=1:-2:-2 / analyse=0x3:0x133 / me=umh / subme=10 / psy=1 / psy_rd=1.00:0.15 / mixed_ref=1 / me_range=32 / chroma_me=1 / trellis=2 / 8x8dct=1 / cqm=0 / deadzone=21,11 / fast_pskip=1 / chroma_qp_offset=-3 / threads=25 / lookahead_threads=6 / sliced_threads=0 / nr=0 / decimate=0 / interlaced=0 / bluray_compat=0 / constrained_intra=0 / bframes=16 / b_pyramid=2 / b_adapt=2 / b_bias=0 / direct=3 / weightb=1 / open_gop=0 / weightp=2 / keyint=240 / keyint_min=24 / scenecut=40 / intra_refresh=0 / rc_lookahead=40 / rc=2pass / mbtree=1 / bitrate=8000 / ratetol=1.0 / qcomp=0.70 / qpmin=0 / qpmax=69 / qpstep=4 / cplxblur=20.0 / qblur=0.5 / ip_ratio=1.40 / aq=1:1.00
Язык : English
Дата кодирования : UTC 2017-03-01 11:04:13
Дата пометки : UTC 2017-03-01 11:04:36
Цветовой диапазон : Limited
Основные цвета : BT.709
Характеристики трансфера : BT.709
Коэффициенты матрицы : BT.709
Menus : 10,11
Видео #2
Идентификатор : 11
Формат : JPEG
Идентификатор кодека : jpeg
Продолжительность : 1 ч. 56 м.
Вид битрейта : Переменный
Битрейт : 608 бит/сек
Ширина : 640 пикселей
Высота : 266 пикселей
Соотношение сторон : 2,40:1
Режим частоты кадров : Переменный
Частота кадров : 0,003 кадр/сек
Минимальная частота кадров : 0,002 кадр/сек
Максимальная частота кадров : 0,005 кадр/сек
Цветовое пространство : YUV
Субдискретизация насыщенности : 4:2:0
Битовая глубина : 8 бит
Метод сжатия : С потерями
Бит/(Пиксели*Кадры) : 1.190
Размер потока : 495 Кбайт (0%)
Заголовок : Chapter Images
Язык : English
Default : Нет
Дата кодирования : UTC 2017-03-01 11:05:47
Дата пометки : UTC 2017-03-01 11:05:47
Menu For : 1
Аудио #1
Идентификатор : 2
Формат : AAC
Формат/Информация : Advanced Audio Codec
Профиль формата : LC
Идентификатор кодека : 40
Продолжительность : 1 ч. 56 м.
Вид битрейта : Переменный
Битрейт : 156 Кбит/сек
Максимальный битрейт : 267 Кбит/сек
Каналы : 2 канала
Расположение каналов : Front: L R
Частота : 48,0 КГц
Частота кадров : 46,875 кадров/сек (1024 spf)
Метод сжатия : С потерями
Размер потока : 129 Мбайт (2%)
Заголовок : Russian Stereo
Язык : Russian
Default : Да
Alternate group : 1
Дата кодирования : UTC 2017-03-01 11:04:13
Дата пометки : UTC 2017-03-01 11:04:38
Fallback From : 4
Subtitles : 6,7
Menus : 10
Аудио #2
Идентификатор : 3
Формат : AAC
Формат/Информация : Advanced Audio Codec
Профиль формата : LC
Идентификатор кодека : 40
Продолжительность : 1 ч. 56 м.
Вид битрейта : Переменный
Битрейт : 155 Кбит/сек
Максимальный битрейт : 271 Кбит/сек
Каналы : 2 канала
Расположение каналов : Front: L R
Частота : 48,0 КГц
Частота кадров : 46,875 кадров/сек (1024 spf)
Метод сжатия : С потерями
Размер потока : 128 Мбайт (2%)
Заголовок : English Stereo
Язык : English
Default : Нет
Alternate group : 1
Дата кодирования : UTC 2017-03-01 11:04:13
Дата пометки : UTC 2017-03-01 11:04:38
Fallback From : 5
Аудио #3
Идентификатор : 4
Формат : AC-3
Формат/Информация : Audio Coding 3
Параметр Endianness формата : Big
Идентификатор кодека : ac-3
Продолжительность : 1 ч. 56 м.
Вид битрейта : Постоянный
Битрейт : 640 Кбит/сек
Каналы : 6 каналов
Расположение каналов : Front: L C R, Side: L R, LFE
Частота : 48,0 КГц
Частота кадров : 31,250 кадров/сек (1536 spf)
Битовая глубина : 16 бит
Метод сжатия : С потерями
Размер потока : 532 Мбайт (7%)
Заголовок : Russian DD 5.1
Язык : Russian
Service kind : Complete Main
Default : Inherited From: 2
Alternate group : 1
Дата кодирования : UTC 2017-03-01 11:04:13
Дата пометки : UTC 2017-03-01 11:04:21
Fallback To : 2
Subtitles : 6,7
Аудио #4
Идентификатор : 5
Формат : AC-3
Формат/Информация : Audio Coding 3
Параметр Endianness формата : Big
Идентификатор кодека : ac-3
Продолжительность : 1 ч. 56 м.
Вид битрейта : Постоянный
Битрейт : 640 Кбит/сек
Каналы : 6 каналов
Расположение каналов : Front: L C R, Side: L R, LFE
Частота : 48,0 КГц
Частота кадров : 31,250 кадров/сек (1536 spf)
Битовая глубина : 16 бит
Метод сжатия : С потерями
Размер потока : 532 Мбайт (7%)
Заголовок : English DD 5.1
Язык : English
Service kind : Complete Main
Default : Нет
Alternate group : 1
Дата кодирования : UTC 2017-03-01 11:04:13
Дата пометки : UTC 2017-03-01 11:04:21
Fallback To : 3
Текст #1
Идентификатор : 6
Формат : Timed Text
Режим смешивания : sbtl
Идентификатор кодека : tx3g
Продолжительность : 1 ч. 56 м.
Вид битрейта : Переменный
Битрейт : 0 бит/сек
Размер потока : 316 байт (0%)
Заголовок : Russian forced
Язык : Russian
Default : Да
Forced : Да
Alternate group : 2
Дата кодирования : UTC 2017-03-01 11:04:13
Дата пометки : UTC 2017-03-01 11:05:39
Subtitles For : 2,4
Full Alternative : 7
Текст #2
Идентификатор : 7
Формат : Timed Text
Режим смешивания : sbtl
Идентификатор кодека : tx3g
Продолжительность : 1 ч. 56 м.
Вид битрейта : Переменный
Битрейт : 94 бит/сек
Размер потока : 80,3 Кбайт (0%)
Заголовок : Russian full
Язык : Russian
Default : Нет
Forced : Нет
Alternate group : 2
Дата кодирования : UTC 2017-03-01 11:04:13
Дата пометки : UTC 2017-03-01 11:05:39
Subtitles For : 2,4
Forced Alternative : 6
Текст #3
Идентификатор : 8
Формат : Timed Text
Режим смешивания : sbtl
Идентификатор кодека : tx3g
Продолжительность : 1 ч. 48 м.
Вид битрейта : Переменный
Битрейт : 68 бит/сек
Размер потока : 54,1 Кбайт (0%)
Заголовок : English full
Язык : English
Default : Нет
Forced : Нет
Alternate group : 2
Дата кодирования : UTC 2017-03-01 11:04:13
Дата пометки : UTC 2017-03-01 11:05:39
Текст #4
Идентификатор : 9
Формат : Timed Text
Режим смешивания : sbtl
Идентификатор кодека : tx3g
Продолжительность : 1 ч. 48 м.
Вид битрейта : Переменный
Битрейт : 72 бит/сек
Размер потока : 57,1 Кбайт (0%)
Заголовок : Emglish SDH
Язык : English
Default : Нет
Forced : Нет
Alternate group : 2
Дата кодирования : UTC 2017-03-01 11:04:13
Дата пометки : UTC 2017-03-01 11:05:39
Меню #1
00:00:00.000 : 00:00:00.000
00:05:25.867 : 00:05:25.867
00:09:35.742 : 00:09:35.742
00:13:32.854 : 00:13:32.854
00:19:32.797 : 00:19:32.755
00:29:48.912 : 00:29:48.870
00:34:29.901 : 00:34:29.901
00:40:00.732 : 00:40:00.732
00:45:11.334 : 00:45:11.334
00:52:55.422 : 00:52:55.422
00:59:37.407 : 00:59:37.407
01:04:15.769 : 01:04:15.769
01:12:49.615 : 01:12:49.615
01:20:03.215 : 01:20:03.215
01:25:11.898 : 01:25:11.898
01:31:53.299 : 01:31:53.299
01:35:24.052 : 01:35:24.010
01:40:48.918 : 01:40:48.876
01:45:04.590 : 01:45:04.590
01:49:45.662 : 01:49:45.579
Меню #2
Идентификатор : 10
Идентификатор кодека : text
Продолжительность : 1 ч. 56 м.
Язык : English
Дата кодирования : UTC 2017-03-01 11:05:39
Дата пометки : UTC 2017-03-01 11:05:39
Вид битрейта : CBR
Menu For : 2,1
00:00:00.000 : 00:00:00.000
00:05:25.867 : 00:05:25.867
00:09:35.742 : 00:09:35.742
00:13:32.854 : 00:13:32.854
00:19:32.797 : 00:19:32.755
00:29:48.912 : 00:29:48.870
00:34:29.901 : 00:34:29.901
00:40:00.732 : 00:40:00.732
00:45:11.334 : 00:45:11.334
00:52:55.422 : 00:52:55.422
00:59:37.407 : 00:59:37.407
01:04:15.769 : 01:04:15.769
01:12:49.615 : 01:12:49.615
01:20:03.215 : 01:20:03.215
01:25:11.898 : 01:25:11.898
01:31:53.299 : 01:31:53.299
01:35:24.052 : 01:35:24.010
01:40:48.918 : 01:40:48.876
01:45:04.590 : 01:45:04.590
01:49:45.662 : 01:49:45.579

Скриншоты





Less time searching
more time doing

Toomac has more than 1500 other beautifully designed tools in one collection. No ads, no in-app purchases, no paying for updates. Just apps, fully unlocked. Toomac is $9.99/month. You get an entire week free to try it out.


Get started Free trial for 7 days.

Nocturnal Animals / Под покровом ночи [2016 г., Триллер, драма, BDRip 1080p]

Powered by TorrentPier II © Meithar, TorrentPier II Team