Deepwater Horizon / Глубоководный горизонт [2016 г., Боевик, триллер, драма, BDRip 1080p]

КОММЕНТАРИИ

Likes


Deepwater Horizon / Глубоководный горизонт- Год выпуска: 2016
Страна: США
Жанр: Боевик, триллер, драма
Продолжительность: 01:47:17
Перевод: Дублированный (iTunes)
Режиссер: Питер Берг
В ролях: Марк Уолберг, Курт Рассел, Джон Малкович, Джина Родригез, Дилан О’Брайен, Кейт Хадсон, Итан Сапли, Генри Фрост, Джереми Сэнд, Дуглас М. Гриффин
Описание:
Отправляясь на очередную вахту и прощаясь с семьями, они не подозревали, что могут не вернуться… Это основанная на реальных событиях история о страшной аварии на нефтяной платформе «Глубоководный горизонт», которая произошла в 2010 году в Мексиканском заливе. Хроника беспримерного мужества и отваги перед лицом одной из самых страшных техногенных катастроф в мировой истории.

Качество: BDRip 1080p
Формат: M4V
Видео: H.264, 1920x800, 2.40:1, 8 000 Kbps, 23.976 (24000/1001) fps
Аудио 1: Русский/Дублированный (iTunes), AAC / 2.0 / 160 Kbps / 48.0 KHz
Аудио 2: Английский/Оригинальная дорожка , AAC / 2.0 / 160 Kbps / 48.0 KHz
Аудио 3: Русский/Дублированный (iTunes), AC-3 / 5.1 / 384 Kbps / 48.0 KHz
Аудио 4: Английский/Оригинальная дорожка , AC-3 / 5.1 / 640 Kbps / 48.0 KHz

Mediainfo


Общее
Полное имя : /Volumes/MEDIA/Deepwater Horizon (1080p HD).m4v
Формат : MPEG-4
Идентификатор кодека : M4V (M4V /M4A /mp42/isom)
Размер файла : 7,00 Гбайт
Продолжительность : 1 ч. 47 м.
Режим общего битрейта : Переменный
Общий поток : 9342 Кбит/сек
Название фильма : Deepwater Horizon
Исполнитель : Peter Berg
Режиссёр : Питер Берг
Исполнитель : Марк Уолберг / Курт Рассел / Джон Малкович / Джина Родригез / Дилан О’Брайен / Кейт Хадсон / Итан Сапли / Генри Фрост / Джереми Сэнд / Дуглас М. Гриффин
Сценарист : Мэттью Сэнд / Мэттью Майкл Карнахан / Дэвид Рохд
Продюсер : Лоренцо Ди Бонавентура / Марк Вахрадян / Марк Уолберг
Студия-производитель : Summit Entertainment
Жанр : Action & Adventure
Тип содержимого : Short Film
Описание : Отправляясь на очередную вахту и прощаясь с семьями, они не подозревали, что могут не вернуться... Это основанная на реальных событиях история о страшной аварии на нефтяной платформе "Глубоководный горизонт", которая произошла в 2010 году в Мексиканском заливе...
Дата записи : UTC 2016-09-13 08:00:00
Дата кодирования : UTC 2017-01-02 22:22:36
Дата пометки : UTC 2017-01-02 22:44:50
Обложка : Yes
Оценка : None
Title/Sort : Deepwater Horizon
LongDescription : Отправляясь на очередную вахту и прощаясь с семьями, они не подозревали, что могут не вернуться... Это основанная на реальных событиях история о страшной аварии на нефтяной платформе "Глубоководный горизонт", которая произошла в 2010 году в Мексиканском заливе. Хроника беспримерного мужества и отваги перед лицом одной из самых страшных техногенных катастроф в мировой истории.
AppleStoreCatalogID : 1155356317
Vendor : Apple:vendor_id:2016-607737
ContentRating : mpaa|PG-13|300|Rated PG-13 for prolonged intense disaster sequences containing disturbing images, and brief strong language.
Видео #1
Идентификатор : 1
Формат : AVC
Формат/Информация : Advanced Video Codec
Профиль формата : [email protected]
Параметр CABAC формата : Да
Параметр ReFrames формата : 4 кадра
Идентификатор кодека : avc1
Идентификатор кодека/Информация : Advanced Video Coding
Продолжительность : 1 ч. 47 м.
Продолжительность оригинала : 1 ч. 47 м.
Битрейт : 8000 Кбит/сек
Ширина : 1920 пикселей
Высота : 800 пикселей
Соотношение сторон : 2,40:1
Режим частоты кадров : Переменный
Частота кадров : 23,976 (24000/1001) кадра/сек
Минимальная частота кадров : 23,974 кадра/сек
Максимальная частота кадров : 23,981 кадра/сек
Цветовое пространство : YUV
Субдискретизация насыщенности : 4:2:0
Битовая глубина : 8 бит
Тип развёртки : Прогрессивная
Бит/(Пиксели*Кадры) : 0.217
Размер потока : 5,99 Гбайт (86%)
Размер потока оригинала : 5,99 Гбайт (86%)
Заголовок : Main Program
Библиотека кодирования : x264 core 148 r2708 86b7198
Настройки программы : cabac=1 / ref=4 / deblock=1:-2:-2 / analyse=0x3:0x133 / me=umh / subme=10 / psy=1 / psy_rd=1.00:0.15 / mixed_ref=1 / me_range=32 / chroma_me=1 / trellis=2 / 8x8dct=1 / cqm=0 / deadzone=21,11 / fast_pskip=0 / chroma_qp_offset=-3 / threads=25 / lookahead_threads=6 / sliced_threads=0 / nr=0 / decimate=0 / interlaced=0 / bluray_compat=0 / constrained_intra=0 / bframes=16 / b_pyramid=2 / b_adapt=2 / b_bias=0 / direct=3 / weightb=1 / open_gop=0 / weightp=2 / keyint=240 / keyint_min=24 / scenecut=40 / intra_refresh=0 / rc_lookahead=60 / rc=2pass / mbtree=1 / bitrate=8000 / ratetol=1.0 / qcomp=0.70 / qpmin=0 / qpmax=69 / qpstep=4 / cplxblur=20.0 / qblur=0.5 / vbv_maxrate=25000 / vbv_bufsize=25000 / nal_hrd=none / filler=0 / ip_ratio=1.40 / aq=1:1.00
Язык : English
Дата кодирования : UTC 2017-01-02 22:22:36
Дата пометки : UTC 2017-01-02 22:22:56
Цветовой диапазон : Limited
Основные цвета : BT.709
Характеристики трансфера : BT.709
Коэффициенты матрицы : BT.709
Menus : 7,8
Видео #2
Идентификатор : 8
Формат : JPEG
Идентификатор кодека : jpeg
Продолжительность : 1 ч. 47 м.
Вид битрейта : Переменный
Битрейт : 460 бит/сек
Ширина : 640 пикселей
Высота : 266 пикселей
Соотношение сторон : 2,40:1
Режим частоты кадров : Переменный
Частота кадров : 0,002 кадр/сек
Минимальная частота кадров : 0,001 кадр/сек
Максимальная частота кадров : 0,005 кадр/сек
Цветовое пространство : YUV
Субдискретизация насыщенности : 4:2:0
Битовая глубина : 8 бит
Метод сжатия : С потерями
Бит/(Пиксели*Кадры) : 1.351
Размер потока : 449 Кбайт (0%)
Заголовок : Chapter Images
Язык : English
Default : Нет
Дата кодирования : UTC 2017-01-02 22:23:58
Дата пометки : UTC 2017-01-02 22:23:59
Menu For : 1
Аудио #1
Идентификатор : 2
Формат : AAC
Формат/Информация : Advanced Audio Codec
Профиль формата : LC
Идентификатор кодека : 40
Продолжительность : 1 ч. 47 м.
Вид битрейта : Переменный
Битрейт : 157 Кбит/сек
Максимальный битрейт : 235 Кбит/сек
Каналы : 2 канала
Расположение каналов : Front: L R
Частота : 48,0 КГц
Частота кадров : 46,875 кадров/сек (1024 spf)
Метод сжатия : С потерями
Размер потока : 120 Мбайт (2%)
Заголовок : Russian Stereo
Язык : Russian
Default : Да
Alternate group : 1
Дата кодирования : UTC 2017-01-02 22:22:36
Дата пометки : UTC 2017-01-02 22:22:57
Fallback From : 4
Menus : 7
Аудио #2
Идентификатор : 3
Формат : AAC
Формат/Информация : Advanced Audio Codec
Профиль формата : LC
Идентификатор кодека : 40
Продолжительность : 1 ч. 47 м.
Вид битрейта : Переменный
Битрейт : 156 Кбит/сек
Максимальный битрейт : 248 Кбит/сек
Каналы : 2 канала
Расположение каналов : Front: L R
Частота : 48,0 КГц
Частота кадров : 46,875 кадров/сек (1024 spf)
Метод сжатия : С потерями
Размер потока : 120 Мбайт (2%)
Заголовок : English Stereo
Язык : English
Default : Нет
Alternate group : 1
Дата кодирования : UTC 2017-01-02 22:22:36
Дата пометки : UTC 2017-01-02 22:22:57
Fallback From : 5
Аудио #3
Идентификатор : 4
Формат : AC-3
Формат/Информация : Audio Coding 3
Параметр Endianness формата : Big
Идентификатор кодека : ac-3
Продолжительность : 1 ч. 47 м.
Вид битрейта : Постоянный
Битрейт : 384 Кбит/сек
Каналы : 6 каналов
Расположение каналов : Front: L C R, Side: L R, LFE
Частота : 48,0 КГц
Частота кадров : 31,250 кадров/сек (1536 spf)
Битовая глубина : 16 бит
Метод сжатия : С потерями
Размер потока : 295 Мбайт (4%)
Заголовок : Russian DD 5.1
Язык : Russian
Service kind : Complete Main
Default : Inherited From: 2
Alternate group : 1
Дата кодирования : UTC 2017-01-02 22:22:36
Дата пометки : UTC 2017-01-02 22:23:52
Fallback To : 2
Аудио #4
Идентификатор : 5
Формат : AC-3
Формат/Информация : Audio Coding 3
Параметр Endianness формата : Big
Идентификатор кодека : ac-3
Продолжительность : 1 ч. 47 м.
Вид битрейта : Постоянный
Битрейт : 640 Кбит/сек
Каналы : 6 каналов
Расположение каналов : Front: L C R, Side: L R, LFE
Частота : 48,0 КГц
Частота кадров : 31,250 кадров/сек (1536 spf)
Битовая глубина : 16 бит
Метод сжатия : С потерями
Размер потока : 491 Мбайт (7%)
Заголовок : English DD 5.1
Язык : English
Service kind : Complete Main
Default : Нет
Alternate group : 1
Дата кодирования : UTC 2017-01-02 22:22:36
Дата пометки : UTC 2017-01-02 22:23:52
Fallback To : 3
Текст
Идентификатор : 6
Формат : Timed Text
Режим смешивания : sbtl
Идентификатор кодека : tx3g
Продолжительность : 1 ч. 36 м.
Вид битрейта : Переменный
Битрейт : 78 бит/сек
Размер потока : 55,3 Кбайт (0%)
Заголовок : English full
Язык : English
Default : Да
Forced : Нет
Alternate group : 2
Дата кодирования : UTC 2017-01-02 22:22:36
Дата пометки : UTC 2017-01-02 22:23:52
Меню #1
00:00:00.000 : Chapter 1
00:07:00.295 : Chapter 2
00:12:32.627 : Chapter 3
00:19:34.465 : Chapter 4
00:27:17.219 : Chapter 5
00:34:52.632 : Chapter 6
00:44:29.834 : Chapter 7
00:48:04.924 : Chapter 8
00:53:47.599 : Chapter 9
00:58:05.148 : Chapter 10
01:05:44.607 : Chapter 11
01:10:06.869 : Chapter 12
01:16:02.391 : Chapter 13
01:20:44.381 : Chapter 14
01:27:37.669 : Chapter 15
01:31:37.826 : Chapter 16
Меню #2
Идентификатор : 7
Идентификатор кодека : text
Продолжительность : 1 ч. 47 м.
Язык : English
Дата кодирования : UTC 2017-01-02 22:23:52
Дата пометки : UTC 2017-01-02 22:23:52
Menu For : 2,1
00:00:00.000 : Chapter 1
00:07:00.295 : Chapter 2
00:12:32.627 : Chapter 3
00:19:34.465 : Chapter 4
00:27:17.219 : Chapter 5
00:34:52.632 : Chapter 6
00:44:29.834 : Chapter 7
00:48:04.924 : Chapter 8
00:53:47.599 : Chapter 9
00:58:05.148 : Chapter 10
01:05:44.607 : Chapter 11
01:10:06.869 : Chapter 12
01:16:02.391 : Chapter 13
01:20:44.381 : Chapter 14
01:27:37.669 : Chapter 15
01:31:37.826 : Chapter 16
Вид битрейта : VBR

Скриншоты





Less time searching
more time doing

Toomac has more than 1500 other beautifully designed tools in one collection. No ads, no in-app purchases, no paying for updates. Just apps, fully unlocked. Toomac is $9.99/month. You get an entire week free to try it out.


Get started Free trial for 7 days.

Deepwater Horizon / Глубоководный горизонт [2016 г., Боевик, триллер, драма, BDRip 1080p]

Powered by TorrentPier II © Meithar, TorrentPier II Team