Billy Lynn's Long Halftime Walk / Долгий путь Билли Линна в перерыве футбольного матча [2016, Драма, Военный, BDRip 1080p]

КОММЕНТАРИИ

Likes


Billy Lynn's Long Halftime Walk / Долгий путь Билли Линна в перерыве футбольного матча- Производство: США, Великобритания, Китай, Bona Film Group, Film4, Ink Factory, The
Жанр: Драма, Военный
Год выпуска: 2016
Продолжительность: 01:52:45
Перевод: Профессиональный многоголосый закадровый iTunes
Режиссер: Энг Ли
В ролях: Джо Элвин, Кристен Стюарт, Крис Такер, Гаррет Хедлунд, Вин Дизель, Стив Мартин, Артуро Кастро, Мэйсон Ли, Астро, Бо Напп
Описание:
В 2007 году 19-летний солдат Билли Линн и его взвод вступают в бой в Ираке. Бой снимают военные журналисты, кадры расходятся по всем новостям. Билли и его боевые товарищи становятся национальными героями и возвращаются в Америку на две недели для промо-тура, кульминацией которого становится шоу в перерыве футбольного матча в День благодарения. А после него они должны снова отправиться на войну.
Рейтинг MPAA: R (лицам до 17 лет обязательно присутствие взрослого)
Язык субтитров: Русский, Украинский, Английский
Вид субтитров: Вшитые отключаемые
Качество: BDRip 1080p
Формат: MP4
Видео: Видео: AVC/H.264 ([email protected]), 1920x1036 (1.85:1), 23.976 fps, 8 484 Kbps
Аудио #1: AAC LC, 48.0 KHz, 2 ch, 160 Kbps, VBR (Русский)
Аудио #2: AC-3 LC, 48.0 KHz, 6 ch, 640 Kbps, CBR (Русский)
Аудио #3: AC-3 LC, 48.0 KHz, 6 ch, 640 Kbps, CBR (Английский)

Mediainfo

General
Complete name : C:\DGI\Billy.Lynn's.Long.Halftime.Walk.2016.1080p.BDRip.x264.NNMclub.mp4
Format : MPEG-4
Format profile : Base Media / Version 2
Codec ID : mp42 (mp42/isom)
File size : 7.82 GiB
Duration : 1 h 52 min
Overall bit rate mode : Variable
Overall bit rate : 9 932 kb/s
Movie name : Billy Lynn's Long Halftime Walk
Performer : Ang Lee
Director : Ang Lee
Actor : Joe Alwyn / Kristen Stewart / Chris Tucker / Garrett Hedlund / Makenzie Leigh / Vin Diesel / Steve Martin / Brian "Astro" Bradley / Arturo Castro / Ismael Cruz Cordova / Barney Harris / Beau Knapp / Mason Lee / Ben Platt
Screenplay by : Jean-Christophe Castelli
Producer : Ang Lee / Marc Platt / Rhodri Thomas / Stephen Cornwell
Genre : Drama
ContentType : Short Film
Description : Three-time Academy Award® winner Ang Lee brings his extraordinary vision to Billy Lynn’s Long
Recorded date : 2016-11-09
Encoded date : UTC 2017-02-27 20:13:47
Tagged date : UTC 2017-02-27 20:35:11
Cover : Yes
LongDescription : Three-time Academy Award® winner Ang Lee brings his extraordinary vision to Billy Lynn’s Long Halftime Walk, based on the widely-acclaimed, bestselling novel. The story is told from the point of view of 19-year-old private Billy Lynn (Joe Alwyn) who, along with his fellow soldiers in Bravo Squad, becomes a hero after a harrowing battle in Iraq and is brought home temporarily for a victory tour. Through a sequence of flashbacks the truth about what really happened is revealed – contrasting the realities of the war with America’s distorted perceptions of heroism. Co-starring Kristen Stewart, Chris Tucker, Garrett Hedlund, with Vin Diesel, and Steve Martin.
AppleStoreCountry : United States
AppleStoreCatalogID : 1169305645
ContentRating : mpaa|R|400|
Video
ID : 1
Format : AVC
Format/Info : Advanced Video Codec
Format profile : [email protected]
Format settings, CABAC : Yes
Format settings, ReFrames : 4 frames
Codec ID : avc1
Codec ID/Info : Advanced Video Coding
Duration : 1 h 52 min
Bit rate : 8 484 kb/s
Width : 1 920 pixels
Height : 1 036 pixels
Display aspect ratio : 1.85:1
Frame rate mode : Variable
Frame rate : 23.976 (23976/1000) FPS
Minimum frame rate : 23.810 FPS
Maximum frame rate : 24.390 FPS
Color space : YUV
Chroma subsampling : 4:2:0
Bit depth : 8 bits
Scan type : Progressive
Bits/(Pixel*Frame) : 0.178
Stream size : 6.68 GiB (85%)
Writing library : x264 core 148 r2762 90a61ec
Encoding settings : cabac=1 / ref=4 / deblock=1:-3:-3 / analyse=0x3:0x113 / me=umh / subme=11 / psy=1 / psy_rd=1.05:0.15 / mixed_ref=1 / me_range=64 / chroma_me=1 / trellis=2 / 8x8dct=1 / cqm=0 / deadzone=6,6 / fast_pskip=0 / chroma_qp_offset=-3 / threads=18 / lookahead_threads=3 / sliced_threads=0 / nr=0 / decimate=1 / interlaced=0 / bluray_compat=0 / constrained_intra=0 / bframes=8 / b_pyramid=2 / b_adapt=2 / b_bias=0 / direct=3 / weightb=1 / open_gop=0 / weightp=2 / keyint=250 / keyint_min=23 / scenecut=45 / intra_refresh=0 / rc_lookahead=64 / rc=2pass / mbtree=1 / bitrate=8484 / ratetol=1.0 / qcomp=0.70 / qpmin=0 / qpmax=69 / qpstep=4 / cplxblur=20.0 / qblur=0.5 / vbv_maxrate=50000 / vbv_bufsize=62500 / nal_hrd=none / filler=0 / ip_ratio=1.35 / aq=3:0.85
Language : English
Encoded date : UTC 2017-02-27 20:13:47
Tagged date : UTC 2017-02-27 20:35:11
Color range : Limited
Color primaries : BT.709
Transfer characteristics : BT.709
Matrix coefficients : BT.709
Audio #1
ID : 2
Format : AAC
Format/Info : Advanced Audio Codec
Format profile : LC
Codec ID : 40
Duration : 1 h 52 min
Source duration : 1 h 52 min
Bit rate mode : Constant
Nominal bit rate : 160 kb/s
Channel(s) : 2 channels
Channel(s)_Original : 6 channels
Channel positions : Front: L C R, Side: L R, LFE
Sampling rate : 48.0 kHz
Frame rate : 46.875 FPS (1024 spf)
Compression mode : Lossy
Source stream size : 129 MiB (2%)
Language : Russian
Default : Yes
Alternate group : 1
Encoded date : UTC 2017-02-27 20:13:47
Tagged date : UTC 2017-02-27 20:35:11
Audio #2
ID : 3
Format : AC-3
Format/Info : Audio Coding 3
Mode extension : CM (complete main)
Format settings, Endianness : Big
Codec ID : ac-3
Duration : 1 h 52 min
Bit rate mode : Constant
Bit rate : 640 kb/s
Channel(s) : 6 channels
Channel positions : Front: L C R, Side: L R, LFE
Sampling rate : 48.0 kHz
Frame rate : 31.250 FPS (1536 spf)
Bit depth : 16 bits
Compression mode : Lossy
Stream size : 516 MiB (6%)
Language : Russian
Default : No
Alternate group : 1
Encoded date : UTC 2017-02-27 20:13:47
Tagged date : UTC 2017-02-27 20:35:11
Audio #3
ID : 4
Format : AC-3
Format/Info : Audio Coding 3
Mode extension : CM (complete main)
Format settings, Endianness : Big
Codec ID : ac-3
Duration : 1 h 52 min
Bit rate mode : Constant
Bit rate : 640 kb/s
Channel(s) : 6 channels
Channel positions : Front: L C R, Side: L R, LFE
Sampling rate : 48.0 kHz
Frame rate : 31.250 FPS (1536 spf)
Bit depth : 16 bits
Compression mode : Lossy
Stream size : 516 MiB (6%)
Language : English
Default : No
Alternate group : 1
Encoded date : UTC 2017-02-27 20:13:47
Tagged date : UTC 2017-02-27 20:35:11
Text #1
ID : 5
Format : Timed Text
Muxing mode : sbtl
Codec ID : tx3g
Duration : 1 h 52 min
Bit rate mode : Variable
Bit rate : 136 b/s
Stream size : 112 KiB (0%)
Language : Russian
Default : Yes
Forced : No
Alternate group : 2
Encoded date : UTC 2017-02-27 20:13:47
Tagged date : UTC 2017-02-27 20:35:11
Text #2
ID : 6
Format : Timed Text
Muxing mode : sbtl
Codec ID : tx3g
Duration : 1 h 52 min
Bit rate mode : Variable
Bit rate : 133 b/s
Stream size : 110 KiB (0%)
Language : Ukrainian
Default : No
Forced : No
Alternate group : 2
Encoded date : UTC 2017-02-27 20:13:47
Tagged date : UTC 2017-02-27 20:35:11
Text #3
ID : 7
Format : Timed Text
Muxing mode : sbtl
Codec ID : tx3g
Duration : 1 h 47 min
Bit rate mode : Variable
Bit rate : 99 b/s
Stream size : 78.4 KiB (0%)
Language : English
Default : No
Forced : No
Alternate group : 2
Encoded date : UTC 2017-02-27 20:13:47
Tagged date : UTC 2017-02-27 20:35:11

Скриншоты


Размер .torrent файла 79 KB

Registered [ 2017-06-24 12:23 ] · B096C86F44A98B4144117850D44D62ADB292778E
checked
Размер файлов 7.82 GB
Инструкции / FAQКак скачать раздачуРейтинг упал ниже 0,3?Seed-бонусы за сидированиеQA по скорости скачивания

Billy Lynn's Long Halftime Walk / Долгий путь Билли Линна в перерыве футбольного матча [2016, Драма, Военный, BDRip 1080p]

      

Comments

 
Heads necessary to send messages to enable JavaScript

Less time searching
more time doing

Toomac has more than 1500 other beautifully designed tools in one collection. No ads, no in-app purchases, no paying for updates. Just apps, fully unlocked. Toomac is $9.99/month. You get an entire week free to try it out.


Get started Free trial for 7 days



Powered by TorrentPier II © Meithar, TorrentPier II Team