The Guest / Гость [2014 г., Триллер, боевик, BDRip 720p]

КОММЕНТАРИИ

Likes


The Guest / Гость
«Он просто зашёл помочь»
- Год выпуска: 2014
Производство: США / © 2013 Universal Studios. All Rights Reserved.
Жанр: Триллер, боевик
Продолжительность: 01:40:25
Перевод: Дублированный, Одноголосый закадровый, авторский (iTunes Russia)
Режиссер: Адам Вингард
В ролях: Дэн Стивенс, Майка Монро, Брендан Мейер, Шейла Келли, Лиленд Орсер, Лэнс Реддик, Табата Шон, Чейз Уильямсон, Джоэль Мур, Стивен Браун
Описание:
В семью, потерявшую на войне своего сына и брата, приезжает незнакомец. Он представляется сослуживцем погибшего и напрашивается погостить у них несколько дней, чтобы познакомиться поближе, а заодно рассказать о своей службе. Незнакомец очень приветлив и добр к каждому из членов семьи и при каждом удобном случае старается чем-то помочь. Однако вскоре эта помощь становится все более и более радикальной…

Качество: BDRip 720p
Формат: M4V
Видео: MPEG-4 AVC/H.264, 1 280x534, 4 328 Kbps, 23.976 fps
Аудио #1: Русский - AAC / 2.0 / 128 Kbps / 48.0 KHz - Дублированный (iTunes Russia)
Аудио #2: Русский - AC3 / 5.1 / 384 Kbps / 48.0 KHz - Дублированный (iTunes Russia)
Аудио #3: Русский - AAC / 2.0 / 128 Kbps / 48.0 KHz - Одноголосый закадровый, авторский (Матвеев)
Аудио #4: Русский - AC3 / 5.1 / 640 Kbps / 48.0 KHz - Одноголосый закадровый, авторский (Матвеев)
Аудио #5: Английский - AAC / 2.0 / 128 Kbps / 48.0 KHz Аудио #6: Английский - AC3 / 5.1 / 640 Kbps / 48.0 KHz
Вид субтитров: Вшитые отключаемые
Язык субтитров: Русский, Английский

Mediainfo


General
Complete name : I:\mod\out\The Guest (2014) (HD).m4v
Format : MPEG-4
Codec ID : M4V
File size : 4.48 GiB
Duration : 1h 40mn
Overall bit rate mode : Variable
Overall bit rate : 6 389 Kbps
Movie name : Гость
Performer : Adam Wingard
Director : Адам Вингард
Actor : Дэн Стивенс / Майка Монро / Брендан Мейер / Шейла Келли / Лиленд Орсер / Лэнс Реддик / Табата Шон / Чейз Уильямсон / Джоэль Мур
Screenplay by : Саймон Баррет
Producer : Кит Калдер / Джессика Ву
Production studio : HanWay Films, Snoot Entertainment
Genre : Action, Mystery, Thriller
ContentType : Short Film
Description : В семью, потерявшую на войне своего сына и брата, приезжает незнакомец. Он представляется сослуживцем погибшего и напрашивается погостить у них несколько дней, чтобы познакомиться поближе, а заодно рассказать о своей службе. Незнакомец очень приветлив и добр к каждому из членов семьи и при каждом удобном случае старается чем-то помочь. Однако вскоре эта помощь становится все более и более радикальной...
Recorded date : UTC 2014-09-17 07:00:00
Encoded date : UTC 2015-02-28 10:34:33
Tagged date : UTC 2015-02-28 10:42:10
Copyright : © 2013 Universal Studios. All Rights Reserved.
Cover : Yes
Comment : «Он просто зашёл помочь»
Rating : None
Title/Sort : The Guest
LongDescription : В семью, потерявшую на войне своего сына и брата, приезжает незнакомец. Он представляется сослуживцем погибшего и напрашивается погостить у них несколько дней, чтобы познакомиться поближе, а заодно рассказать о своей службе. Незнакомец очень приветлив и добр к каждому из членов семьи и при каждом удобном случае старается чем-то помочь. Однако вскоре эта помощь становится все более и более радикальной...
HDVideo : Yes
AppleStoreCatalogID : 919242558
Vendor : Apple:vendor_id:2013-771793
ContentRating : mpaa|R|400|
Video #1
ID : 1
Format : AVC
Format/Info : Advanced Video Codec
Format profile : [email protected]
Format settings, CABAC : Yes
Format settings, ReFrames : 9 frames
Codec ID : avc1
Codec ID/Info : Advanced Video Coding
Duration : 1h 40mn
Bit rate : 4 328 Kbps
Width : 1 280 pixels
Height : 534 pixels
Display aspect ratio : 2.40:1
Frame rate mode : Variable
Frame rate : 23.976 fps
Minimum frame rate : 23.810 fps
Maximum frame rate : 24.390 fps
Color space : YUV
Chroma subsampling : 4:2:0
Bit depth : 8 bits
Scan type : Progressive
Bits/(Pixel*Frame) : 0.264
Stream size : 3.04 GiB (68%)
Title : The Guest (2014)
Language : English
Encoded date : UTC 2015-02-28 10:34:33
Tagged date : UTC 2015-02-28 10:42:06
Color primaries : BT.709
Transfer characteristics : BT.709
Matrix coefficients : BT.709
Color range : Limited
Video #2
ID : 12
Format : JPEG
Codec ID : jpeg
Duration : 1h 40mn
Duration_FirstFrame : 54ms
Duration_LastFrame : 1h 40mn
Bit rate mode : Variable
Bit rate : 82 bps
Width : 640 pixels
Height : 267 pixels
Display aspect ratio : 2.40:1
Frame rate : 0.000 fps
Color space : YUV
Chroma subsampling : 4:2:0
Bit depth : 8 bits
Compression mode : Lossy
Stream size : 60.5 KiB (0%)
Language : English
Encoded date : UTC 2015-02-28 10:42:10
Tagged date : UTC 2015-02-28 10:42:10
Audio #1
ID : 2
Format : AAC
Format/Info : Advanced Audio Codec
Format profile : LC
Codec ID : 40
Duration : 1h 40mn
Source duration : 1h 40mn
Bit rate mode : Variable
Bit rate : 128 Kbps
Maximum bit rate : 135 Kbps
Channel(s) : 2 channels
Channel positions : Front: L R
Sampling rate : 48.0 KHz
Compression mode : Lossy
Stream size : 91.9 MiB (2%)
Source stream size : 91.9 MiB (2%)
Title : Dub [iTunes Russia]
Language : Russian
Encoded date : UTC 2015-02-28 10:34:33
Tagged date : UTC 2015-02-28 10:42:06
Audio #2
ID : 3
Format : AC-3
Format/Info : Audio Coding 3
Mode extension : CM (complete main)
Format settings, Endianness : Big
Codec ID : ac-3
Duration : 1h 40mn
Bit rate mode : Constant
Bit rate : 384 Kbps
Channel(s) : 6 channels
Channel positions : Front: L C R, Side: L R, LFE
Sampling rate : 48.0 KHz
Bit depth : 16 bits
Compression mode : Lossy
Stream size : 276 MiB (6%)
Title : Dub [iTunes Russia]
Language : Russian
Encoded date : UTC 2015-02-28 10:34:33
Tagged date : UTC 2015-02-28 10:42:06
Audio #3
ID : 4
Format : AAC
Format/Info : Advanced Audio Codec
Format profile : LC
Codec ID : 40
Duration : 1h 40mn
Source duration : 1h 40mn
Bit rate mode : Variable
Bit rate : 128 Kbps
Maximum bit rate : 135 Kbps
Channel(s) : 2 channels
Channel positions : Front: L R
Sampling rate : 48.0 KHz
Compression mode : Lossy
Stream size : 91.9 MiB (2%)
Source stream size : 91.9 MiB (2%)
Title : VO [Matveev]
Language : Russian
Encoded date : UTC 2015-02-28 10:34:33
Tagged date : UTC 2015-02-28 10:42:06
Audio #4
ID : 5
Format : AC-3
Format/Info : Audio Coding 3
Mode extension : CM (complete main)
Format settings, Endianness : Big
Codec ID : ac-3
Duration : 1h 40mn
Bit rate mode : Constant
Bit rate : 640 Kbps
Channel(s) : 6 channels
Channel positions : Front: L C R, Side: L R, LFE
Sampling rate : 48.0 KHz
Bit depth : 16 bits
Compression mode : Lossy
Stream size : 460 MiB (10%)
Title : VO [Matveev]
Language : Russian
Encoded date : UTC 2015-02-28 10:34:33
Tagged date : UTC 2015-02-28 10:42:06
Audio #5
ID : 6
Format : AAC
Format/Info : Advanced Audio Codec
Format profile : LC
Codec ID : 40
Duration : 1h 40mn
Source duration : 1h 40mn
Bit rate mode : Variable
Bit rate : 128 Kbps
Maximum bit rate : 135 Kbps
Channel(s) : 2 channels
Channel positions : Front: L R
Sampling rate : 48.0 KHz
Compression mode : Lossy
Stream size : 91.9 MiB (2%)
Source stream size : 91.9 MiB (2%)
Language : English
Encoded date : UTC 2015-02-28 10:34:33
Tagged date : UTC 2015-02-28 10:42:06
Audio #6
ID : 7
Format : AC-3
Format/Info : Audio Coding 3
Mode extension : CM (complete main)
Format settings, Endianness : Big
Codec ID : ac-3
Duration : 1h 40mn
Bit rate mode : Constant
Bit rate : 640 Kbps
Channel(s) : 6 channels
Channel positions : Front: L C R, Side: L R, LFE
Sampling rate : 48.0 KHz
Bit depth : 16 bits
Compression mode : Lossy
Stream size : 460 MiB (10%)
Language : English
Encoded date : UTC 2015-02-28 10:34:33
Tagged date : UTC 2015-02-28 10:42:06
Text #1
ID : 8
Format : Timed Text
Muxing mode : sbtl
Codec ID : tx3g
Duration : 1h 35mn
Bit rate mode : Variable
Bit rate : 83 bps
Stream size : 58.3 KiB (0%)
Language : Russian
Encoded date : UTC 2015-02-28 10:34:33
Tagged date : UTC 2015-02-28 10:42:06
Text #2
ID : 9
Format : Timed Text
Muxing mode : sbtl
Codec ID : tx3g
Duration : 1h 35mn
Bit rate mode : Variable
Bit rate : 53 bps
Stream size : 37.0 KiB (0%)
Language : English
Encoded date : UTC 2015-02-28 10:34:33
Tagged date : UTC 2015-02-28 10:42:06
Text #3
ID : 10
Format : Timed Text
Muxing mode : sbtl
Codec ID : tx3g
Duration : 1h 35mn
Bit rate mode : Variable
Bit rate : 62 bps
Stream size : 43.7 KiB (0%)
Language : English
Encoded date : UTC 2015-02-28 10:34:33
Tagged date : UTC 2015-02-28 10:42:07
Menu #1
00:00:00.000 : 00:00:00.054
00:00:00.054 : 00:00:00.054 / 00:00:00.054
Menu #2
ID : 11
Codec ID : text
Duration : 1h 40mn
Language : English
Encoded date : UTC 2015-02-28 10:42:07
Tagged date : UTC 2015-02-28 10:42:07
Bit rate mode : CBR
Duration_FirstFrame : 54
Duration_LastFrame : 6024881
00:00:00.000 : 00:00:00.054
00:00:00.054 : 00:00:00.054 / 00:00:00.054

Скриншоты




Релиз подготовлен для просмотра на Apple TV, iPad, iPhone, iPod Touch.
Для просмотра данного релиза на компьютере с ОС Windows рекомендуется использовать VLC media player




Less time searching
more time doing

Toomac has more than 1500 other beautifully designed tools in one collection. No ads, no in-app purchases, no paying for updates. Just apps, fully unlocked. Toomac is $9.99/month. You get an entire week free to try it out.


Get started Free trial for 7 days.

The Guest / Гость [2014 г., Триллер, боевик, BDRip 720p]

Powered by TorrentPier II © Meithar, TorrentPier II Team