Arrival / Прибытие [2016 г., Фантастика, триллер, драма, детектив, BDRip 1080p]

КОММЕНТАРИИ

Likes


Arrival / Прибытие
«Why are they here?»
- Год выпуска: 2016
Страна: США
Жанр: Фантастика, триллер, драма, детектив
Продолжительность: 01:56:22
Перевод: Дублированный (iTunes)
Субтитры: Русские форсированные, Английские форсированные, Украинские форсированные, Русские, Английские, Украинские
Режиссер: Дени Вильнёв
В ролях: Эми Адамс, Джереми Реннер, Майкл Стулбарг, Форест Уитакер, Сангита Патель, Ци Ма, Эбигейл Пнёвски, Марк О’Брайэн, Рут Чианг, Джейдин Мэлоун
Описание:
Неожиданное появление неопознанных летающих объектов в разных точках планеты повергает мир в трепет. Намерения пришельцев не ясны — вооруженные силы всего мира приведены в полную боевую готовность, а лучшие умы человечества пытаются понять, как разговаривать с непрошенными гостями. Правительство обращается за помощью к лингвисту Луизе Бэнкс и физику Яну Доннели, чтобы предотвратить глобальную катастрофу и найти общий язык с пришельцами. Отныне судьба человечества находится в их руках.

Качество: BDRip 1080p
Формат: M4V
Видео: H.264, 1920x816, 2.35:1, 8 000 Kbps, 23.976 fps
Аудио 1: Русский/Дублированный (iTunes), AAC / 2.0 / 160 Kbps / 48.0 KHz
Аудио 2: Английский/Оригинальная дорожка , AAC / 2.0 / 160 Kbps / 48.0 KHz
Аудио 3: Украинский/Дублированный (iTunes), AAC / 2.0 / 160 Kbps / 48.0 KHz
Аудио 4: Русский/Дублированный (iTunes), AC-3 / 5.1 / 384 Kbps / 48.0 KHz
Аудио 5: Английский/Оригинальная дорожка , AC-3 / 5.1 / 640 Kbps / 48.0 KHz

Mediainfo


General
Complete name : /Users/imac/HandBrake/Arrival (1080p HD).m4v
Format : MPEG-4
Codec ID : M4V
File size : 7.72 GiB
Duration : 1h 56mn
Overall bit rate mode : Variable
Overall bit rate : 9 496 Kbps
Movie name : Arrival
Performer : Denis Villeneuve
Director : Дени Вильнёв
Actor : Эми Адамс / Джереми Реннер / Майкл Стулбарг / Форест Уитакер / Сангита Патель / Ци Ма / Эбигейл Пнёвски / Марк О’Брайэн / Рут Чианг / Джейдин Мэлоун / Елена Ивасишина / Илья Исаев / Алексей Мясников / Сергей Чихачев / Анатолий Пашнин
Screenplay by : Эрик Хайссерер / Тед Чан
Producer : Пол Барбо / Глен Баснер / Дэн Коэн
Production studio : Paramount Pictures
Genre : Drama
ContentType : Short Film
Description : Неожиданное появление неопознанных летающих объектов в разных точках планеты повергает мир в трепет. Намерения пришельцев не ясны - вооруженные силы всего мира приведены в полную боевую готовность, а лучшие умы человечества пытаются понять, как разговаривать с непрошенными гостями. Правительство обращается за помощью к лингвисту Луизе Бэнкс и физику Яну Доннели, чтобы предотвратить глобальную катастрофу и найти общий язык с пришельцами. Отныне судьба человечества находится в их руках.
Recorded date : UTC 2016-09-01 08:00:00
Encoded date : UTC 2017-02-04 21:17:49
Tagged date : UTC 2017-02-04 21:22:52
Copyright : © MMXVI Paramount Pictures Corporation. All Rights Reserved.
Cover : Yes
Rating : None
Title/Sort : Arrival
LongDescription : Неожиданное появление неопознанных летающих объектов в разных точках планеты повергает мир в трепет. Намерения пришельцев не ясны - вооруженные силы всего мира приведены в полную боевую готовность, а лучшие умы человечества пытаются понять, как разговаривать с непрошенными гостями. Правительство обращается за помощью к лингвисту Луизе Бэнкс и физику Яну Доннели, чтобы предотвратить глобальную катастрофу и найти общий язык с пришельцами. Отныне судьба человечества находится в их руках.
AppleStoreCatalogID : 1166395905
Vendor : Apple:vendor_id:2016-718811
ContentRating : mpaa|PG-13|300|
Video #1
ID : 1
Format : AVC
Format/Info : Advanced Video Codec
Format profile : [email protected]
Format settings, CABAC : Yes
Format settings, ReFrames : 4 frames
Codec ID : avc1
Codec ID/Info : Advanced Video Coding
Duration : 1h 56mn
Source duration : 1h 56mn
Bit rate : 8 000 Kbps
Width : 1 920 pixels
Height : 816 pixels
Display aspect ratio : 2.35:1
Frame rate mode : Variable
Frame rate : 23.976 fps
Minimum frame rate : 23.974 fps
Maximum frame rate : 23.981 fps
Color space : YUV
Chroma subsampling : 4:2:0
Bit depth : 8 bits
Scan type : Progressive
Bits/(Pixel*Frame) : 0.213
Stream size : 6.50 GiB (84%)
Source stream size : 6.50 GiB (84%)
Title : Main Program
Writing library : x264 core 148 r2708 86b7198
Encoding settings : cabac=1 / ref=4 / deblock=1:-2:-2 / analyse=0x3:0x133 / me=umh / subme=10 / psy=1 / psy_rd=1.00:0.15 / mixed_ref=1 / me_range=32 / chroma_me=1 / trellis=2 / 8x8dct=1 / cqm=0 / deadzone=21,11 / fast_pskip=1 / chroma_qp_offset=-3 / threads=25 / lookahead_threads=6 / sliced_threads=0 / nr=0 / decimate=0 / interlaced=0 / bluray_compat=0 / constrained_intra=0 / bframes=16 / b_pyramid=2 / b_adapt=2 / b_bias=0 / direct=3 / weightb=1 / open_gop=0 / weightp=2 / keyint=240 / keyint_min=24 / scenecut=40 / intra_refresh=0 / rc_lookahead=40 / rc=2pass / mbtree=1 / bitrate=8000 / ratetol=1.0 / qcomp=0.70 / qpmin=0 / qpmax=69 / qpstep=4 / cplxblur=20.0 / qblur=0.5 / ip_ratio=1.40 / aq=1:1.00
Language : English
Encoded date : UTC 2017-02-04 21:17:49
Tagged date : UTC 2017-02-04 21:18:46
Color range : Limited
Color primaries : BT.709
Transfer characteristics : BT.709
Matrix coefficients : BT.709
Video #2
ID : 14
Format : JPEG
Codec ID : jpeg
Duration : 1h 56mn
Bit rate mode : Variable
Bit rate : 329 bps
Width : 640 pixels
Height : 272 pixels
Display aspect ratio : 2.35:1
Frame rate mode : Variable
Frame rate : 0.002 fps
Minimum frame rate : 0.001 fps
Maximum frame rate : 0.003 fps
Color space : YUV
Chroma subsampling : 4:2:0
Bit depth : 8 bits
Compression mode : Lossy
Bits/(Pixel*Frame) : 0.945
Stream size : 281 KiB (0%)
Title : Chapter Images
Language : English
Encoded date : UTC 2017-02-04 21:19:58
Tagged date : UTC 2017-02-04 21:19:59
Audio #1
ID : 2
Format : AAC
Format/Info : Advanced Audio Codec
Format profile : LC
Codec ID : 40
Duration : 1h 56mn
Bit rate mode : Variable
Bit rate : 156 Kbps
Maximum bit rate : 235 Kbps
Channel(s) : 2 channels
Channel positions : Front: L R
Sampling rate : 48.0 KHz
Compression mode : Lossy
Stream size : 130 MiB (2%)
Title : Russian Stereo
Language : Russian
Encoded date : UTC 2017-02-04 21:17:49
Tagged date : UTC 2017-02-04 21:19:51
Audio #2
ID : 3
Format : AAC
Format/Info : Advanced Audio Codec
Format profile : LC
Codec ID : 40
Duration : 1h 56mn
Bit rate mode : Variable
Bit rate : 154 Kbps
Maximum bit rate : 246 Kbps
Channel(s) : 2 channels
Channel positions : Front: L R
Sampling rate : 48.0 KHz
Compression mode : Lossy
Stream size : 128 MiB (2%)
Title : English Stereo
Language : English
Encoded date : UTC 2017-02-04 21:17:49
Tagged date : UTC 2017-02-04 21:19:51
Audio #3
ID : 4
Format : AAC
Format/Info : Advanced Audio Codec
Format profile : LC
Codec ID : 40
Duration : 1h 56mn
Bit rate mode : Variable
Bit rate : 156 Kbps
Maximum bit rate : 224 Kbps
Channel(s) : 2 channels
Channel positions : Front: L R
Sampling rate : 48.0 KHz
Compression mode : Lossy
Stream size : 130 MiB (2%)
Title : Ukrainian Stereo
Language : Ukrainian
Encoded date : UTC 2017-02-04 21:17:49
Tagged date : UTC 2017-02-04 21:19:51
Audio #4
ID : 5
Format : AC-3
Format/Info : Audio Coding 3
Mode extension : CM (complete main)
Format settings, Endianness : Big
Codec ID : ac-3
Duration : 1h 56mn
Bit rate mode : Constant
Bit rate : 384 Kbps
Channel(s) : 6 channels
Channel positions : Front: L C R, Side: L R, LFE
Sampling rate : 48.0 KHz
Bit depth : 16 bits
Compression mode : Lossy
Stream size : 320 MiB (4%)
Title : Russian DD 5.1
Language : Russian
Encoded date : UTC 2017-02-04 21:17:49
Tagged date : UTC 2017-02-04 21:19:51
Audio #5
ID : 6
Format : AC-3
Format/Info : Audio Coding 3
Mode extension : CM (complete main)
Format settings, Endianness : Big
Codec ID : ac-3
Duration : 1h 56mn
Bit rate mode : Constant
Bit rate : 640 Kbps
Channel(s) : 6 channels
Channel positions : Front: L C R, Side: L R, LFE
Sampling rate : 48.0 KHz
Bit depth : 16 bits
Compression mode : Lossy
Stream size : 531 MiB (7%)
Title : English DD 5.1
Language : English
Encoded date : UTC 2017-02-04 21:17:49
Tagged date : UTC 2017-02-04 21:19:51
Text #1
ID : 7
Format : Timed Text
Muxing mode : sbtl
Codec ID : tx3g
Duration : 1h 50mn
Bit rate mode : Variable
Bit rate : 2 bps
Stream size : 1.24 KiB (0%)
Title : Russian forced
Language : Russian
Encoded date : UTC 2017-02-04 21:17:49
Tagged date : UTC 2017-02-04 21:19:40
Text #2
ID : 8
Format : Timed Text
Muxing mode : sbtl
Codec ID : tx3g
Duration : 1h 31mn
Bit rate mode : Variable
Bit rate : 0 bps
Stream size : 164 Bytes (0%)
Title : English forced
Language : English
Encoded date : UTC 2017-02-04 21:17:49
Tagged date : UTC 2017-02-04 21:19:37
Text #3
ID : 9
Format : Timed Text
Muxing mode : sbtl
Codec ID : tx3g
Duration : 1h 31mn
Bit rate mode : Variable
Bit rate : 3 bps
Stream size : 1.85 KiB (0%)
Title : Ukrainian forced
Language : Ukrainian
Encoded date : UTC 2017-02-04 21:17:49
Tagged date : UTC 2017-02-04 21:19:37
Text #4
ID : 10
Format : Timed Text
Muxing mode : sbtl
Codec ID : tx3g
Duration : 1h 50mn
Bit rate mode : Variable
Bit rate : 106 bps
Stream size : 86.0 KiB (0%)
Title : Russian full
Language : Russian
Encoded date : UTC 2017-02-04 21:17:49
Tagged date : UTC 2017-02-04 21:19:48
Text #5
ID : 11
Format : Timed Text
Muxing mode : sbtl
Codec ID : tx3g
Duration : 1h 50mn
Bit rate mode : Variable
Bit rate : 70 bps
Stream size : 56.6 KiB (0%)
Title : English full
Language : English
Encoded date : UTC 2017-02-04 21:17:49
Tagged date : UTC 2017-02-04 21:19:48
Text #6
ID : 12
Format : Timed Text
Muxing mode : sbtl
Codec ID : tx3g
Duration : 1h 50mn
Bit rate mode : Variable
Bit rate : 102 bps
Stream size : 82.7 KiB (0%)
Title : Ukrainian full
Language : Ukrainian
Encoded date : UTC 2017-02-04 21:17:49
Tagged date : UTC 2017-02-04 21:19:48
Menu #1
00:00:00.000 : 00:00:00.000
00:09:49.923 : 00:09:49.923
00:17:33.552 : 00:17:33.552
00:23:28.282 : 00:23:28.282
00:33:54.157 : 00:33:54.157
00:41:01.709 : 00:41:01.709
00:52:26.101 : 00:52:26.101
00:57:34.576 : 00:57:34.576
01:03:06.449 : 01:03:06.449
01:09:29.207 : 01:09:29.207
01:16:09.398 : 01:16:09.398
01:25:21.825 : 01:25:21.825
01:35:37.065 : 01:35:37.065
01:45:26.695 : 01:45:26.695
Menu #2
ID : 13
Codec ID : text
Duration : 1h 56mn
Language : English
Encoded date : UTC 2017-02-04 21:19:51
Tagged date : UTC 2017-02-04 21:19:51
Bit rate mode : CBR
00:00:00.000 : 00:00:00.000
00:09:49.923 : 00:09:49.923
00:17:33.552 : 00:17:33.552
00:23:28.282 : 00:23:28.282
00:33:54.157 : 00:33:54.157
00:41:01.709 : 00:41:01.709
00:52:26.101 : 00:52:26.101
00:57:34.576 : 00:57:34.576
01:03:06.449 : 01:03:06.449
01:09:29.207 : 01:09:29.207
01:16:09.398 : 01:16:09.398
01:25:21.825 : 01:25:21.825
01:35:37.065 : 01:35:37.065
01:45:26.695 : 01:45:26.695

Скриншоты




Релиз подготовлен для просмотра на Apple TV, iPad, iPhone, iPod Touch.
Для просмотра данного релиза на компьютере с ОС Windows рекомендуется использовать VLC media player




Less time searching
more time doing

Toomac has more than 1500 other beautifully designed tools in one collection. No ads, no in-app purchases, no paying for updates. Just apps, fully unlocked. Toomac is $9.99/month. You get an entire week free to try it out.


Get started Free trial for 7 days.

Arrival / Прибытие [2016 г., Фантастика, триллер, драма, детектив, BDRip 1080p]

Powered by TorrentPier II © Meithar, TorrentPier II Team