Allied / Союзники [2016 г., Боевик, триллер, драма, мелодрама, военный, BDRip 1080p]

КОММЕНТАРИИ

Likes


Allied / Союзники

«Nothing is as it seems»- Год выпуска: 2016
Страна: США, Великобритания
Жанр: Боевик, триллер, драма, мелодрама, военный
Продолжительность: 02:04:35
Перевод: Дублированный (iTunes)
Субтитры: Русские форсированные, Английские форсированные, Русские, Английские
Режиссер: Роберт Земекис
В ролях: Брэд Питт, Марион Котийяр, Лиззи Каплан, Аугуст Диль, Шарлотта Хоуп, Рэффи Кэссиди, Мэттью Гуд, Дэниэл Беттс, Саймон МакБерни, Джаред Харрис
Описание:
1942 год. Во время опасной миссии в Северной Африке разведчик Макс встречает участницу сопротивления Марианну. Их чувствам суждено подвергнуться тысяче испытаний, главным из которых станет испытание правдой…

Качество: BDRip 1080p
Формат: M4V
Видео: H.264, 1920x800, 2.40:1, 8 000 Kbps, 23.976 (24000/1001) fps
Аудио 1: Русский/Дублированный (iTunes), AAC / 2.0 / 160 Kbps / 48.0 KHz
Аудио 2: Английский/Оригинальная дорожка , AAC / 2.0 / 160 Kbps / 48.0 KHz
Аудио 3: Русский/Дублированный (iTunes), AC-3 / 5.1 / 384 Kbps / 48.0 KHz
Аудио 4: Английский/Оригинальная дорожка , AC-3 / 5.1 / 640 Kbps / 48.0 KHz
Релиз подготовлен: kosatka ®

Mediainfo


General
Complete name : /Users/imac/HandBrake/Allied (1080p HD).m4v
Format : MPEG-4
Codec ID : M4V (M4V /M4A /mp42/isom)
File size : 8.13 GiB
Duration : 2h 4mn
Overall bit rate mode : Variable
Overall bit rate : 9 338 Kbps
Movie name : Allied
Performer : Robert Zemeckis
Director : Роберт Земекис
Actor : Брэд Питт / Марион Котийяр / Лиззи Каплан / Аугуст Диль / Шарлотта Хоуп / Рэффи Кэссиди / Мэттью Гуд / Дэниэл Беттс / Саймон МакБерни / Джаред Харрис / Юрий Деркач / Татьяна Шитова / Анна Аннинская / Евгений Вальц / Василиса Эльдарова
Screenplay by : Стивен Найт
Producer : Грэм Кинг / Стивен Найт / Жаклин Ливайн
Production studio : Paramount Pictures
Genre : Drama
ContentType : Short Film
Description : 1942 год. Во время опасной миссии в Северной Африке разведчик Макс встречает участницу сопротивления Марианну. Их чувствам суждено подвергнуться тысяче испытаний, главным из которых станет испытание правдой...
Recorded date : UTC 2016-11-13 08:00:00
Encoded date : UTC 2017-02-21 21:39:46
Tagged date : UTC 2017-02-21 21:44:43
Copyright : © 2016 Paramount Pictures Corporation. All Rights Reserved.
Cover : Yes
Rating : None
Title/Sort : Allied
LongDescription : 1942 год. Во время опасной миссии в Северной Африке разведчик Макс встречает участницу сопротивления Марианну. Их чувствам суждено подвергнуться тысяче испытаний, главным из которых станет испытание правдой...
AppleStoreCatalogID : 1172063943
Vendor : Apple:vendor_id:2016-915140
ContentRating : mpaa|R|400|
Video #1
ID : 1
Format : AVC
Format/Info : Advanced Video Codec
Format profile : [email protected]
Format settings, CABAC : Yes
Format settings, ReFrames : 4 frames
Codec ID : avc1
Codec ID/Info : Advanced Video Coding
Duration : 2h 4mn
Source duration : 2h 4mn
Bit rate : 8 000 Kbps
Width : 1 920 pixels
Height : 800 pixels
Display aspect ratio : 2.40:1
Frame rate mode : Variable
Frame rate : 23.976 (24000/1001) fps
Minimum frame rate : 23.974 fps
Maximum frame rate : 23.981 fps
Color space : YUV
Chroma subsampling : 4:2:0
Bit depth : 8 bits
Scan type : Progressive
Bits/(Pixel*Frame) : 0.217
Stream size : 6.96 GiB (86%)
Source stream size : 6.96 GiB (86%)
Title : Main Program
Writing library : x264 core 148 r2708 86b7198
Encoding settings : cabac=1 / ref=4 / deblock=1:-2:-2 / analyse=0x3:0x133 / me=umh / subme=10 / psy=1 / psy_rd=1.00:0.15 / mixed_ref=1 / me_range=32 / chroma_me=1 / trellis=2 / 8x8dct=1 / cqm=0 / deadzone=21,11 / fast_pskip=1 / chroma_qp_offset=-3 / threads=25 / lookahead_threads=6 / sliced_threads=0 / nr=0 / decimate=0 / interlaced=0 / bluray_compat=0 / constrained_intra=0 / bframes=16 / b_pyramid=2 / b_adapt=2 / b_bias=0 / direct=3 / weightb=1 / open_gop=0 / weightp=2 / keyint=240 / keyint_min=24 / scenecut=40 / intra_refresh=0 / rc_lookahead=40 / rc=2pass / mbtree=1 / bitrate=8000 / ratetol=1.0 / qcomp=0.70 / qpmin=0 / qpmax=69 / qpstep=4 / cplxblur=20.0 / qblur=0.5 / ip_ratio=1.40 / aq=1:1.00
Language : English
Encoded date : UTC 2017-02-21 21:39:46
Tagged date : UTC 2017-02-21 21:40:08
Color range : Limited
Color primaries : BT.709
Transfer characteristics : BT.709
Matrix coefficients : BT.709
Menus : 10,11
Video #2
ID : 11
Format : JPEG
Codec ID : jpeg
Duration : 2h 4mn
Bit rate mode : Variable
Bit rate : 600 bps
Width : 640 pixels
Height : 266 pixels
Display aspect ratio : 2.40:1
Frame rate mode : Variable
Frame rate : 0.002 fps
Minimum frame rate : 0.001 fps
Maximum frame rate : 0.003 fps
Color space : YUV
Chroma subsampling : 4:2:0
Bit depth : 8 bits
Compression mode : Lossy
Bits/(Pixel*Frame) : 1.762
Stream size : 549 KiB (0%)
Title : Chapter Images
Language : English
Default : No
Encoded date : UTC 2017-02-21 21:41:26
Tagged date : UTC 2017-02-21 21:41:26
Menu For : 1
Audio #1
ID : 2
Format : AAC
Format/Info : Advanced Audio Codec
Format profile : LC
Codec ID : 40
Duration : 2h 4mn
Bit rate mode : Variable
Bit rate : 155 Kbps
Maximum bit rate : 261 Kbps
Channel(s) : 2 channels
Channel positions : Front: L R
Sampling rate : 48.0 KHz
Frame rate : 46.875 fps (1024 spf)
Compression mode : Lossy
Stream size : 138 MiB (2%)
Title : Russian Stereo
Language : Russian
Default : Yes
Alternate group : 1
Encoded date : UTC 2017-02-21 21:39:46
Tagged date : UTC 2017-02-21 21:40:09
Fallback From : 4
Subtitles : 6,8
Menus : 10
Audio #2
ID : 3
Format : AAC
Format/Info : Advanced Audio Codec
Format profile : LC
Codec ID : 40
Duration : 2h 4mn
Bit rate mode : Variable
Bit rate : 154 Kbps
Maximum bit rate : 271 Kbps
Channel(s) : 2 channels
Channel positions : Front: L R
Sampling rate : 48.0 KHz
Frame rate : 46.875 fps (1024 spf)
Compression mode : Lossy
Stream size : 137 MiB (2%)
Title : English Stereo
Language : English
Default : No
Alternate group : 1
Encoded date : UTC 2017-02-21 21:39:46
Tagged date : UTC 2017-02-21 21:40:09
Fallback From : 5
Subtitles : 7,9
Audio #3
ID : 4
Format : AC-3
Format/Info : Audio Coding 3
Mode extension : CM (complete main)
Format settings, Endianness : Big
Codec ID : ac-3
Duration : 2h 4mn
Bit rate mode : Constant
Bit rate : 384 Kbps
Channel(s) : 6 channels
Channel positions : Front: L C R, Side: L R, LFE
Sampling rate : 48.0 KHz
Frame rate : 31.250 fps (1536 spf)
Bit depth : 16 bits
Compression mode : Lossy
Stream size : 342 MiB (4%)
Title : Russian DD 5.1
Language : Russian
Default : Inherited From: 2
Alternate group : 1
Encoded date : UTC 2017-02-21 21:39:46
Tagged date : UTC 2017-02-21 21:41:18
Fallback To : 2
Subtitles : 6,8
Audio #4
ID : 5
Format : AC-3
Format/Info : Audio Coding 3
Mode extension : CM (complete main)
Format settings, Endianness : Big
Codec ID : ac-3
Duration : 2h 4mn
Bit rate mode : Constant
Bit rate : 640 Kbps
Channel(s) : 6 channels
Channel positions : Front: L C R, Side: L R, LFE
Sampling rate : 48.0 KHz
Frame rate : 31.250 fps (1536 spf)
Bit depth : 16 bits
Compression mode : Lossy
Stream size : 570 MiB (7%)
Title : English DD 5.1
Language : English
Default : No
Alternate group : 1
Encoded date : UTC 2017-02-21 21:39:46
Tagged date : UTC 2017-02-21 21:41:18
Fallback To : 3
Subtitles : 7,9
Text #1
ID : 6
Format : Timed Text
Muxing mode : sbtl
Codec ID : tx3g
Duration : 1h 39mn
Bit rate mode : Variable
Bit rate : 10 bps
Stream size : 6.98 KiB (0%)
Title : Russian forced
Language : Russian
Default : Yes
Forced : Yes
Alternate group : 2
Encoded date : UTC 2017-02-21 21:39:46
Tagged date : UTC 2017-02-21 21:41:18
Subtitles For : 2,4
Full Alternative : 8
Text #2
ID : 7
Format : Timed Text
Muxing mode : sbtl
Codec ID : tx3g
Duration : 1h 39mn
Bit rate mode : Variable
Bit rate : 6 bps
Stream size : 4.18 KiB (0%)
Title : English forced
Language : English
Default : No
Forced : Yes
Alternate group : 2
Encoded date : UTC 2017-02-21 21:39:46
Tagged date : UTC 2017-02-21 21:41:18
Subtitles For : 3,5
Full Alternative : 9
Text #3
ID : 8
Format : Timed Text
Muxing mode : sbtl
Codec ID : tx3g
Duration : 1h 56mn
Bit rate mode : Variable
Bit rate : 61 bps
Stream size : 52.0 KiB (0%)
Title : Russian full
Language : Russian
Default : No
Forced : No
Alternate group : 2
Encoded date : UTC 2017-02-21 21:39:46
Tagged date : UTC 2017-02-21 21:41:18
Subtitles For : 2,4
Forced Alternative : 6
Text #4
ID : 9
Format : Timed Text
Muxing mode : sbtl
Codec ID : tx3g
Duration : 1h 56mn
Bit rate mode : Variable
Bit rate : 40 bps
Stream size : 33.8 KiB (0%)
Title : English full
Language : English
Default : No
Forced : No
Alternate group : 2
Encoded date : UTC 2017-02-21 21:39:46
Tagged date : UTC 2017-02-21 21:41:18
Subtitles For : 3,5
Forced Alternative : 7
Menu #1
00:00:00.000 : Chapter 1
00:05:38.088 : Chapter 2
00:16:39.123 : Chapter 3
00:24:31.428 : Chapter 4
00:33:52.280 : Chapter 5
00:43:07.543 : Chapter 6
00:49:14.118 : Chapter 7
01:01:39.321 : Chapter 8
01:09:35.838 : Chapter 9
01:16:44.016 : Chapter 10
01:26:14.961 : Chapter 11
01:31:53.049 : Chapter 12
01:40:11.589 : Chapter 13
01:47:25.105 : Chapter 14
01:56:34.821 : Chapter 15
Menu #2
ID : 10
Codec ID : text
Duration : 2h 4mn
Language : English
Encoded date : UTC 2017-02-21 21:41:18
Tagged date : UTC 2017-02-21 21:41:18
Menu For : 2,1
00:00:00.000 : Chapter 1
00:05:38.088 : Chapter 2
00:16:39.123 : Chapter 3
00:24:31.428 : Chapter 4
00:33:52.280 : Chapter 5
00:43:07.543 : Chapter 6
00:49:14.118 : Chapter 7
01:01:39.321 : Chapter 8
01:09:35.838 : Chapter 9
01:16:44.016 : Chapter 10
01:26:14.961 : Chapter 11
01:31:53.049 : Chapter 12
01:40:11.589 : Chapter 13
01:47:25.105 : Chapter 14
01:56:34.821 : Chapter 15
Bit rate mode : VBR

Скриншоты




Релиз подготовлен для просмотра на Apple TV, iPad, iPhone, iPod Touch.
Для просмотра данного релиза на компьютере с ОС Windows рекомендуется использовать VLC media player




Less time searching
more time doing

Toomac has more than 1500 other beautifully designed tools in one collection. No ads, no in-app purchases, no paying for updates. Just apps, fully unlocked. Toomac is $9.99/month. You get an entire week free to try it out.


Get started Free trial for 7 days.

Allied / Союзники [2016 г., Боевик, триллер, драма, мелодрама, военный, BDRip 1080p]

Powered by TorrentPier II © Meithar, TorrentPier II Team