A Monster Calls / Голос монстра [2016 г., Фэнтези, Драма, BDRip 1080p]

КОММЕНТАРИИ

Likes



A Monster Calls / Голос монстра
- Год выпуска: 2016
Страна: США, Испания
Жанр: Фэнтези, Драма
Продолжительность: 01:48:25
Перевод: Дублированный (Line)
Язык субтитров: Русский, Английский (полные)
Вид субтитров: Вшитые отключаемые
Режиссер: Хуан Антонио Байона
В ролях: Льюис МакДугалл, Сигурни Уивер, Фелисити Джонс, Тоби Кеббелл, Бен Моор, Джеймс Мелвилл, Оливер Стир, Доминик Бойл, Дженнифер Лим, Макс Габбей
Описание:
История о мальчике Конноре и монстре из его снов. Когда Коннору особенно тяжело, происходит нечто невероятное — старое тисовое дерево за окном оживает и превращается в громадное чудовище. По ночам монстр рассказывает Коннору истории, которые помогут ему понять, что даже когда весь мир рушится, можно найти в себе силы и не отчаиваться.
Возраст: 16+ (зрителям, достигшим 16 лет)
Рейтинг MPAA: PG-13 (детям до 13 лет просмотр нежелателен)


Качество: BDRip 1080p
Формат: MP4
Видео: AVC, 1920x804, ~ 8 Mbps, 24 fps
Аудио: AAC, 2 ch, 128 kbps, 48 kHz, Stereo

Mediainfo


Общее
Полное имя : /Volumes/MEDIA/A Monster Calls.2016.BDRip.1080p.mp4
Формат : MPEG-4
Профиль формата : Base Media / Version 2
Идентификатор кодека : mp42 (mp42)
Размер файла : 6,05 Гбайт
Продолжительность : 1 ч. 48 м.
Общий поток : 7984 Кбит/сек
Коллекция : A Monster Calls
Трек : A Monster Calls.2016.BDRip.1080p
Режиссёр : Juan Antonio Bayona
Содиректор : codirector
Исполнитель : Sigourney Weaver / Felicity Jones / Toby Kebbell / Lewis MacDougall / Liam Neeson / Tom Holland / Geraldine Chaplin / Jennifer Lim / James Melville / Lily-Rose Aslandogdu / Dominic Boyle / Max Gabbay / Oliver Steer / Ben Moor / Frida Palsson
Сценарист : Patrick Ness / Siobhan Dowd / Patrick Ness
Студия-производитель : studio
Жанр : Drama
Тип содержимого : Unknown Type
Описание : Stories are wild creatures.
Дата записи : 2016-10-07
Дата кодирования : UTC 2017-03-10 06:50:44
Дата пометки : UTC 2017-03-10 06:50:44
Обложка : Yes
LongDescription : A boy attempts to deal with his mother's illness and the bullying of his classmates by escaping to a fantastical world.
TVNetworkName : River Road Entertainment Participant Media Apaches Entertainment La Trini
Видео
Идентификатор : 1
Формат : AVC
Формат/Информация : Advanced Video Codec
Профиль формата : [email protected]
Параметр CABAC формата : Да
Параметр ReFrames формата : 2 кадра
Параметр GOP формата : M=3, N=30
Режим смешивания : Container [email protected]
Идентификатор кодека : avc1
Идентификатор кодека/Информация : Advanced Video Coding
Продолжительность : 1 ч. 48 м.
Битрейт : 7849 Кбит/сек
Ширина : 1920 пикселей
Высота : 804 пикселя
Соотношение сторон : 2,40:1
Режим частоты кадров : Постоянный
Частота кадров : 24,000 кадра/сек
Цветовое пространство : YUV
Субдискретизация насыщенности : 4:2:0
Битовая глубина : 8 бит
Тип развёртки : Прогрессивная
Бит/(Пиксели*Кадры) : 0.212
Размер потока : 5,94 Гбайт (98%)
Язык : English
Дата кодирования : UTC 1951-03-10 06:50:44
Дата пометки : UTC 1951-03-10 06:50:44
Аудио
Идентификатор : 2
Формат : AAC
Формат/Информация : Advanced Audio Codec
Профиль формата : LC
Идентификатор кодека : 40
Продолжительность : 1 ч. 48 м.
Вид битрейта : Постоянный
Битрейт : 128 Кбит/сек
Каналы : 2 канала
Расположение каналов : Front: L R
Частота : 48,0 КГц
Частота кадров : 46,875 кадров/сек (1024 spf)
Метод сжатия : С потерями
Размер потока : 99,0 Мбайт (2%)
Заголовок : Stereo
Язык : English
Default : Да
Alternate group : 1
Дата кодирования : UTC 1951-03-10 06:50:44
Дата пометки : UTC 1951-03-10 06:50:44

Скриншоты



Релиз подготовлен для просмотра на Apple TV, iPad, iPhone, iPod Touch.
Для просмотра данного релиза на компьютере с ОС Windows рекомендуется использовать VLC media player




Less time searching
more time doing

Toomac has more than 1500 other beautifully designed tools in one collection. No ads, no in-app purchases, no paying for updates. Just apps, fully unlocked. Toomac is $9.99/month. You get an entire week free to try it out.


Get started Free trial for 7 days.

A Monster Calls / Голос монстра [2016 г., Фэнтези, Драма, BDRip 1080p]

Powered by TorrentPier II © Meithar, TorrentPier II Team