Bleed for This / Пазманский дьявол [2016 г., Драма, Биография, Спорт, BDRip 1080p]

КОММЕНТАРИИ

Likes


Bleed for This / Пазманский дьявол- Год выпуска: 2016
Страна: США / Bruce Cohen Productions, Magna Entertainment
Жанр: Драма, Биография, Спорт
Продолжительность: 01:57:03
Перевод: Дублированный (iTunes)
Субтитры: Английские (full, SDH)
Режиссер: Бен Янгер
В ролях: Майлз Теллер, Аарон Экхарт, Кэти Сагал, Киран Хайндс, Тед Левайн, Джордан Гелбер, Аманда Клэйтон, Дэниэл Саули, Кристин Евангелиста, Тина Каскиани, Лиз Кэри, Денис Шефер
Описание:
Винни Пациенца - один из самых выдающихся чемпионов по боксу. Молодой, яркий, безрассудный... Его называли Пазманским дьяволом. Его карьера была на самом пике, но страшная авария в одночасье разрушила все планы. Врачи говорили, что он больше никогда не сможет ходить. Однако Винни решил вернуться на ринг во что бы то ни стало.

Возраст: 18+ (зрителям, достигшим 18 лет. запрещено для детей)
Рейтинг MPAA: R (лицам до 17 лет обязательно присутствие взрослого)

Качество: BDRip 1080p
Формат: M4V
Видео: AVC, 1920x804, ~ 6 Mbps, 24 fps
Аудио #1: Русский, ACC, 2 ch, 163 kbps, 48 kHz, Stereo
Аудио #2: English, AC-3, 6 ch, 223 kbps, 48 kHz, Surround

Mediainfo


Общее
Полное имя : /Volumes/MEDIA/Bleed.for.This.2016.BDRip.1080p.m4v
Формат : MPEG-4
Профиль формата : Base Media / Version 2
Идентификатор кодека : mp42 (isom/iso2/avc1/mp41)
Размер файла : 4,80 Гбайт
Продолжительность : 1 ч. 57 м.
Режим общего битрейта : Переменный
Общий поток : 5876 Кбит/сек
Дата кодирования : UTC 2017-03-10 22:46:06
Дата пометки : UTC 2017-03-10 22:46:06
Программа кодирования : HandBrake 1.0.3 2017022500
Режиссер: Бен Янгер
В ролях: Майлз Теллер, Аарон Экхарт, Кэти Сагал, Киран Хайндс, Тед Левайн, Джордан Гелбер, Аманда Клэйтон, Дэниэл Саули, Кристин Евангелиста, Тина Каскиани, Лиз Кэри, Денис Шефер
Описание: Винни Пациенца - один из самых выдающихся чемпионов по боксу. Молодой, яркий, безрассудный... Его называли Пазманским дьяволом. Его карьера была на самом пике, но страшная авария в одночасье разрушила все планы. Врачи говорили, что он больше никогда не сможет ходить. Однако Винни решил вернуться на ринг во что бы то ни стало.
Жанр: Драма, Биография, Спорт
Год выпуска: 2016
Видео
Идентификатор : 1
Формат : AVC
Формат/Информация : Advanced Video Codec
Профиль формата : [email protected]
Параметр CABAC формата : Да
Параметр ReFrames формата : 4 кадра
Идентификатор кодека : avc1
Идентификатор кодека/Информация : Advanced Video Coding
Продолжительность : 1 ч. 57 м.
Битрейт : 5478 Кбит/сек
Ширина : 1918 пикселей
Высота : 802 пикселя
Соотношение сторон : 2,40:1
Режим частоты кадров : Переменный
Частота кадров : 23,976 (24000/1001) кадра/сек
Минимальная частота кадров : 23,974 кадра/сек
Максимальная частота кадров : 23,981 кадра/сек
Цветовое пространство : YUV
Субдискретизация насыщенности : 4:2:0
Битовая глубина : 8 бит
Тип развёртки : Прогрессивная
Бит/(Пиксели*Кадры) : 0.149
Размер потока : 4,48 Гбайт (93%)
Библиотека кодирования : x264 core 148 r2708 86b7198
Настройки программы : cabac=1 / ref=3 / deblock=1:0:0 / analyse=0x3:0x113 / me=hex / subme=7 / psy=1 / psy_rd=1.00:0.00 / mixed_ref=1 / me_range=16 / chroma_me=1 / trellis=1 / 8x8dct=1 / cqm=0 / deadzone=21,11 / fast_pskip=1 / chroma_qp_offset=-2 / threads=6 / lookahead_threads=1 / sliced_threads=0 / nr=0 / decimate=1 / interlaced=0 / bluray_compat=0 / constrained_intra=0 / bframes=3 / b_pyramid=2 / b_adapt=1 / b_bias=0 / direct=1 / weightb=1 / open_gop=0 / weightp=2 / keyint=240 / keyint_min=24 / scenecut=40 / intra_refresh=0 / rc_lookahead=40 / rc=crf / mbtree=1 / crf=20.0 / qcomp=0.60 / qpmin=0 / qpmax=69 / qpstep=4 / vbv_maxrate=25000 / vbv_bufsize=31250 / crf_max=0.0 / nal_hrd=none / filler=0 / ip_ratio=1.40 / aq=1:1.00
Дата кодирования : UTC 2017-03-10 22:46:06
Дата пометки : UTC 2017-03-10 22:46:06
Цветовой диапазон : Limited
Основные цвета : BT.709
Характеристики трансфера : BT.709
Коэффициенты матрицы : BT.709
Menus : 4
Аудио #1
Идентификатор : 2
Формат : AAC
Формат/Информация : Advanced Audio Codec
Профиль формата : LC
Идентификатор кодека : 40
Продолжительность : 1 ч. 57 м.
Вид битрейта : Переменный
Битрейт : 163 Кбит/сек
Каналы : 2 канала
Расположение каналов : Front: L R
Частота : 48,0 КГц
Частота кадров : 46,875 кадров/сек (1024 spf)
Метод сжатия : С потерями
Размер потока : 136 Мбайт (3%)
Заголовок : Stereo / Stereo
Язык : Russian
Default : Да
Alternate group : 1
Дата кодирования : UTC 2017-03-10 22:46:06
Дата пометки : UTC 2017-03-10 22:46:06
Menus : 4
Аудио #2
Идентификатор : 3
Формат : AC-3
Формат/Информация : Audio Coding 3
Параметр Endianness формата : Big
Идентификатор кодека : ac-3
Продолжительность : 1 ч. 57 м.
Вид битрейта : Постоянный
Битрейт : 224 Кбит/сек
Каналы : 6 каналов
Расположение каналов : Front: L C R, Side: L R, LFE
Частота : 48,0 КГц
Частота кадров : 31,250 кадров/сек (1536 spf)
Битовая глубина : 16 бит
Метод сжатия : С потерями
Размер потока : 188 Мбайт (4%)
Заголовок : Surround / Surround
Язык : English
Service kind : Complete Main
Default : Нет
Alternate group : 1
Дата кодирования : UTC 2017-03-10 22:46:06
Дата пометки : UTC 2017-03-10 22:46:06
Menus : 4
Меню
Идентификатор : 4
Идентификатор кодека : text
Продолжительность : 1 ч. 57 м.
Язык : English
Дата кодирования : UTC 2017-03-10 22:46:06
Дата пометки : UTC 2017-03-10 22:46:06
Вид битрейта : CBR
Menu For : 1,2,3
00:00:00.000 : 00:00:00.000
00:05:14.648 : 00:05:14.439
00:10:27.127 : 00:10:26.918
00:15:01.943 : 00:15:01.943
00:20:58.799 : 00:20:58.674
00:26:32.424 : 00:26:32.216
00:33:33.512 : 00:33:33.511
00:41:22.188 : 00:41:22.188
00:49:25.254 : 00:49:25.171
00:54:04.366 : 00:54:04.324
00:58:46.857 : 00:58:46.690
01:03:31.099 : 01:03:30.932
01:10:14.669 : 01:10:14.502
01:14:15.159 : 01:14:14.950
01:20:24.194 : 01:20:23.986
01:25:27.164 : 01:25:27.039
01:31:45.583 : 01:31:45.583
01:37:03.276 : 01:37:03.067
01:44:24.425 : 01:44:24.425
01:50:24.993 : 01:50:24.868

Скриншоты




Релиз подготовлен для просмотра на Apple TV, iPad, iPhone, iPod Touch.
Для просмотра данного релиза на компьютере с ОС Windows рекомендуется использовать VLC media player




Less time searching
more time doing

Toomac has more than 1500 other beautifully designed tools in one collection. No ads, no in-app purchases, no paying for updates. Just apps, fully unlocked. Toomac is $9.99/month. You get an entire week free to try it out.


Get started Free trial for 7 days.

Bleed for This / Пазманский дьявол [2016 г., Драма, Биография, Спорт, BDRip 1080p]

Powered by TorrentPier II © Meithar, TorrentPier II Team