House of Lies / Обитель лжи (Сезон: 1 / Серии: 1-12 из 12) [2012 г., Драма, комедия, HDTVRip 720p]

КОММЕНТАРИИ

Likes


House of Lies / Обитель лжи
Сезон: 1 / Серии: 1-12 из 12
- Год выпуска: 2012
Страна: США
Жанр: Драма, комедия
Продолжительность: ~30 мин серия
Перевод: Профессиональный (двухголосый закадровый) NewStudio
Режиссер: Стивен Хопкинс / Stephen Hopkins
В ролях: Дон Чидл, Кристен Белл, Джош Лоусон, Доун Оливьери, Бен Швартц, Глинн Турман и др
Описание:
Необычный и язвительный взгляд на очень успешного и беспощадного консультанта по вопросам управления Марти, который не брезгует никакими средствами, чтобы получить нужную для его клиентов информацию.
Качество: HDTVRip 720p
Видео: AVC, 1280x720, 16:9, 23.976 fps, ~4846 Kbps
Формат видео: MP4
Аудио 1: Русский / NewStudio, ACC, 48 kHz, 6 ch, ~232 kbps, Stereo
Аудио 2: English / Original, AC-3, 48 kHz, 6 ch, ~384 kbps, Surround

Список серий

1. The Gods of Dangerous Financial Instruments
2. Amsterdam
3. Microphallus
4. Mini-Mogul
5. Utah
6. Our Descent Into Los Angeles
7. Bareback Town
8. Veritas
9. Ouroboros
10. Prologue and Aftermath
11. Business
12. The Mayan Apocalypse

Mediainfo


Общее
Полное имя : /Volumes/MEDIA/_House.Of.Lies.s01.720p/Обитель лжи – S01E01.mp4
Формат : MPEG-4
Профиль формата : Base Media / Version 2
Идентификатор кодека : mp42 (mp42)
Размер файла : 1,29 Гбайт
Продолжительность : 33 м. 46 с.
Общий поток : 5469 Кбит/сек
Коллекция : S1E1
Альбом : S1E1,Season 1
Трек : Обитель лжи – S1E1
Режиссёр : Стивен Хопкинс / Stephen Hopkins
Содиректор : codirector
Исполнитель : Дон Чидл, Кристен Белл, Джош Лоусон, Доун Оливьери, Бен Швартц, Глинн Турман и др
Студия-производитель : studio
Жанр : Drama
Тип содержимого : Unknown Type
Описание : House of Lies
Дата кодирования : UTC 2017-03-10 11:14:02
Дата пометки : UTC 2017-03-10 11:14:02
Примечание : House of Lies
LongDescription : Необычный и язвительный взгляд на очень успешного и беспощадного консультанта по вопросам управления Марти, который не брезгует никакими средствами, чтобы получить нужную для его клиентов информацию.
Видео
Идентификатор : 1
Формат : AVC
Формат/Информация : Advanced Video Codec
Профиль формата : [email protected]
Параметр CABAC формата : Да
Параметр ReFrames формата : 2 кадра
Параметр GOP формата : M=3, N=30
Режим смешивания : Container [email protected]
Идентификатор кодека : avc1
Идентификатор кодека/Информация : Advanced Video Coding
Продолжительность : 33 м. 45 с.
Битрейт : 4846 Кбит/сек
Ширина : 1280 пикселей
Высота : 720 пикселей
Соотношение сторон : 16:9
Режим частоты кадров : Постоянный
Частота кадров : 24,000 кадра/сек
Цветовое пространство : YUV
Субдискретизация насыщенности : 4:2:0
Битовая глубина : 8 бит
Тип развёртки : Прогрессивная
Бит/(Пиксели*Кадры) : 0.219
Размер потока : 1,14 Гбайт (89%)
Язык : English
Дата кодирования : UTC 1951-03-10 11:14:02
Дата пометки : UTC 1951-03-10 11:14:02
Аудио #1
Идентификатор : 2
Формат : AAC
Формат/Информация : Advanced Audio Codec
Профиль формата : LC
Идентификатор кодека : 40
Продолжительность : 33 м. 45 с.
Вид битрейта : Постоянный
Битрейт : 232 Кбит/сек
Каналы : 6 каналов
Расположение каналов : Front: L C R, Side: L R, LFE
Частота : 48,0 КГц
Частота кадров : 46,875 кадров/сек (1024 spf)
Метод сжатия : С потерями
Размер потока : 56,1 Мбайт (4%)
Заголовок : Stereo
Язык : English
Default : Да
Alternate group : 1
Дата кодирования : UTC 1951-03-10 11:14:02
Дата пометки : UTC 1951-03-10 11:14:02
Аудио #2
Идентификатор : 3
Формат : AC-3
Формат/Информация : Audio Coding 3
Параметр Endianness формата : Big
Идентификатор кодека : ac-3
Продолжительность : 33 м. 46 с.
Вид битрейта : Постоянный
Битрейт : 384 Кбит/сек
Каналы : 6 каналов
Расположение каналов : Front: L C R, Side: L R, LFE
Частота : 48,0 КГц
Частота кадров : 31,250 кадров/сек (1536 spf)
Битовая глубина : 16 бит
Метод сжатия : С потерями
Размер потока : 92,7 Мбайт (7%)
Заголовок : Surround
Язык : English
Service kind : Complete Main
Default : Нет
Alternate group : 1
Дата кодирования : UTC 1951-03-10 11:14:02
Дата пометки : UTC 1951-03-10 11:14:02

Скриншоты




Релиз подготовлен для просмотра на Apple TV, iPad, iPhone, iPod Touch.
Для просмотра данного релиза на компьютере с ОС Windows рекомендуется использовать VLC media player




Less time searching
more time doing

Toomac has more than 1500 other beautifully designed tools in one collection. No ads, no in-app purchases, no paying for updates. Just apps, fully unlocked. Toomac is $9.99/month. You get an entire week free to try it out.


Get started Free trial for 7 days.

House of Lies / Обитель лжи (Сезон: 1 / Серии: 1-12 из 12) [2012 г., Драма, комедия, HDTVRip 720p]

Powered by TorrentPier II © Meithar, TorrentPier II Team