The 9th Life of Louis Drax / Девятая жизнь Луи Дракса [2016 г., Триллер, детектив, BDRip 1080p]

КОММЕНТАРИИ

Likes


The 9th Life of Louis Drax / Девятая жизнь Луи Дракса- Год выпуска: 2016
Страна: Великобритания, Канада, США
Жанр: Триллер, детектив
Продолжительность: 01:48:12
Перевод: Дублированный (iTunes Россия)
Режиссер: Александр Ажа
В ролях:
Джейми Дорнан, Эйден Лонгуорт, Сара Гадон, Аарон Пол, Оливер Платт, Молли Паркер, Джулиан Уэдэм, Джейн МакГрегор, Барбара Херши, Анджали Джай
Описание:
Знаменитый психолог Аллан Паскаль пытается раскрыть тайны, которые хранит сознание 9-летнего Луи Дракса, впавшего в кому после таинственного несчастного случая. Влюбленный в мать мальчика доктор подозревает в случившемся отца. Но чем глубже он погружается в подсознание ребенка, тем сильнее размываются границы между мистикой и реальностью…

-
Качество: BDRip 1080p
Формат: MP4
Видео: H.264, 1920x800, 7885 Kbps avg, 23.976 fps
Аудио 1: Русский, AAC / 2.0 / 160 Kbps / 48.0 KHz , Stereo
Аудио 2: Английский, AAC / 2.0 / 160 Kbps / 48.0 KHz , Stereo
Аудио 3: Русский, AC-3 / 5.1 / 384 Kbps / 48.0 KHz, Surround
Аудио 4: Английский, AC-3 / 5.1 / 640 Kbps / 48.0 KHz, Surround
Субтитры: Английские (отключаемые)
Меню: сохранены чаптеры

Mediainfo


Общее
Полное имя : /Volumes/MEDIA/Fantastic Beasts and Where to Find Them (1080p HD).mp4
Формат : MPEG-4
Идентификатор кодека : MP4 (MP4 /mp42/isom)
Размер файла : 8,72 Гбайт
Продолжительность : 2 ч. 12 м.
Режим общего битрейта : Переменный
Общий поток : 9283 Кбит/сек
Название фильма : Fantastic Beasts and Where to Find Them
Исполнитель : David Yates
Режиссёр : Дэвид Йейтс
Исполнитель : Эдди Редмэйн / Кэтрин Уотерстон / Дэн Фоглер / Элисон Судол / Колин Фаррелл / Кармен Эджого / Эзра Миллер / Саманта Мортон / Рон Перлман / Джон Войт / Илья Бледный / Полина Щербакова / Константин Карасик / Наталья Фищук / Вадим Медведев
Сценарист : Дж.К. Роулинг
Продюсер : Нил Блэр / Дэвид Хейман / Стивен Кловз
Студия-производитель : Warner Bros.
Жанр : Action & Adventure
Тип содержимого : Short Film
Описание : Поиск и изучение необычайных волшебных существ приводят магозоолога Ньюта Саламандера в Нью-Йорк. Скорее всего, он отбыл бы на поезде дальше, если бы не не маг (так в Америке называют магглов) по имени Якоб, оставленный в неположенном месте магический чемодан и побег из него фантастических животных Ньюта.
Дата записи : UTC 2016-11-08 08:00:00
Дата кодирования : UTC 2017-03-10 15:57:50
Дата пометки : UTC 2017-03-10 15:57:50
Авторское право : 2017 Warner Bros. Entertainment Inc. Harry Potter and Fantastic Beasts Publishing Rights © J.K.R.
Обложка : Yes
Оценка : None
Title/Sort : Fantastic Beasts and Where to Find Them
LongDescription : Поиск и изучение необычайных волшебных существ приводят магозоолога Ньюта Саламандера в Нью-Йорк. Скорее всего, он отбыл бы на поезде дальше, если бы не не маг (так в Америке называют магглов) по имени Якоб, оставленный в неположенном месте магический чемодан и побег из него фантастических животных Ньюта.
AppleStoreCatalogID : 1170244491
Vendor : Apple:vendor_id:2016-797840
ContentRating : mpaa|PG-13|300|
Видео #1
Идентификатор : 1
Формат : AVC
Формат/Информация : Advanced Video Codec
Профиль формата : [email protected]
Параметр CABAC формата : Да
Параметр ReFrames формата : 4 кадра
Идентификатор кодека : avc1
Идентификатор кодека/Информация : Advanced Video Coding
Продолжительность : 2 ч. 12 м.
Продолжительность оригинала : 2 ч. 12 м.
Битрейт : 7885 Кбит/сек
Ширина : 1920 пикселей
Высота : 800 пикселей
Соотношение сторон : 2,40:1
Режим частоты кадров : Переменный
Частота кадров : 23,976 (24000/1001) кадра/сек
Минимальная частота кадров : 23,974 кадра/сек
Максимальная частота кадров : 23,981 кадра/сек
Цветовое пространство : YUV
Субдискретизация насыщенности : 4:2:0
Битовая глубина : 8 бит
Тип развёртки : Прогрессивная
Бит/(Пиксели*Кадры) : 0.217
Размер потока : 7,41 Гбайт (85%)
Размер потока оригинала : 7,41 Гбайт (85%)
Заголовок : Main Program
Библиотека кодирования : x264 core 148 r2708 86b7198
Настройки программы : cabac=1 / ref=4 / deblock=1:-2:-2 / analyse=0x3:0x133 / me=umh / subme=10 / psy=1 / psy_rd=1.00:0.15 / mixed_ref=1 / me_range=32 / chroma_me=1 / trellis=2 / 8x8dct=1 / cqm=0 / deadzone=21,11 / fast_pskip=1 / chroma_qp_offset=-3 / threads=25 / lookahead_threads=6 / sliced_threads=0 / nr=0 / decimate=0 / interlaced=0 / bluray_compat=0 / constrained_intra=0 / bframes=16 / b_pyramid=2 / b_adapt=2 / b_bias=0 / direct=3 / weightb=1 / open_gop=0 / weightp=2 / keyint=240 / keyint_min=24 / scenecut=40 / intra_refresh=0 / rc_lookahead=40 / rc=2pass / mbtree=1 / bitrate=8000 / ratetol=1.0 / qcomp=0.70 / qpmin=0 / qpmax=69 / qpstep=4 / cplxblur=20.0 / qblur=0.5 / ip_ratio=1.40 / aq=1:1.00
Язык : English
Дата кодирования : UTC 2017-03-10 15:57:50
Дата пометки : UTC 2017-03-10 15:57:50
Цветовой диапазон : Limited
Основные цвета : BT.709
Характеристики трансфера : BT.709
Коэффициенты матрицы : BT.709
Menus : 9,10
Видео #2
Идентификатор : 10
Формат : JPEG
Идентификатор кодека : jpeg
Продолжительность : 2 ч. 12 м.
Вид битрейта : Переменный
Битрейт : 542 бит/сек
Ширина : 640 пикселей
Высота : 266 пикселей
Соотношение сторон : 2,40:1
Режим частоты кадров : Переменный
Частота кадров : 0,002 кадр/сек
Минимальная частота кадров : 0,001 кадр/сек
Максимальная частота кадров : 0,003 кадр/сек
Цветовое пространство : YUV
Субдискретизация насыщенности : 4:2:0
Битовая глубина : 8 бит
Метод сжатия : С потерями
Бит/(Пиксели*Кадры) : 1.592
Размер потока : 463 Кбайт (0%)
Заголовок : Chapter Images
Язык : English
Default : Нет
Дата кодирования : UTC 2017-03-10 15:57:50
Дата пометки : UTC 2017-03-10 15:57:50
Menu For : 1
Аудио #1
Идентификатор : 2
Формат : AAC
Формат/Информация : Advanced Audio Codec
Профиль формата : LC
Идентификатор кодека : 40
Продолжительность : 2 ч. 12 м.
Вид битрейта : Переменный
Битрейт : 157 Кбит/сек
Максимальный битрейт : 253 Кбит/сек
Каналы : 2 канала
Расположение каналов : Front: L R
Частота : 48,0 КГц
Частота кадров : 46,875 кадров/сек (1024 spf)
Метод сжатия : С потерями
Размер потока : 150 Мбайт (2%)
Заголовок : Russian Stereo
Язык : Russian
Default : Да
Alternate group : 1
Дата кодирования : UTC 2017-03-10 15:57:50
Дата пометки : UTC 2017-03-10 15:57:50
Fallback From : 4
Subtitles : 6,7
Menus : 9
Аудио #2
Идентификатор : 3
Формат : AAC
Формат/Информация : Advanced Audio Codec
Профиль формата : LC
Идентификатор кодека : 40
Продолжительность : 2 ч. 12 м.
Вид битрейта : Переменный
Битрейт : 158 Кбит/сек
Максимальный битрейт : 252 Кбит/сек
Каналы : 2 канала
Расположение каналов : Front: L R
Частота : 48,0 КГц
Частота кадров : 46,875 кадров/сек (1024 spf)
Метод сжатия : С потерями
Размер потока : 150 Мбайт (2%)
Заголовок : English Stereo
Язык : English
Default : Нет
Alternate group : 1
Дата кодирования : UTC 2017-03-10 15:57:50
Дата пометки : UTC 2017-03-10 15:57:50
Fallback From : 5
Аудио #3
Идентификатор : 4
Формат : AC-3
Формат/Информация : Audio Coding 3
Параметр Endianness формата : Big
Идентификатор кодека : ac-3
Продолжительность : 2 ч. 12 м.
Вид битрейта : Постоянный
Битрейт : 448 Кбит/сек
Каналы : 6 каналов
Расположение каналов : Front: L C R, Side: L R, LFE
Частота : 48,0 КГц
Частота кадров : 31,250 кадров/сек (1536 spf)
Битовая глубина : 16 бит
Метод сжатия : С потерями
Размер потока : 426 Мбайт (5%)
Заголовок : Russian DD 5.1
Язык : Russian
Service kind : Complete Main
Default : Inherited From: 2
Alternate group : 1
Дата кодирования : UTC 2017-03-10 15:57:50
Дата пометки : UTC 2017-03-10 15:57:50
Fallback To : 2
Subtitles : 6,7
Аудио #4
Идентификатор : 5
Формат : AC-3
Формат/Информация : Audio Coding 3
Параметр Endianness формата : Big
Идентификатор кодека : ac-3
Продолжительность : 2 ч. 12 м.
Вид битрейта : Постоянный
Битрейт : 640 Кбит/сек
Каналы : 6 каналов
Расположение каналов : Front: L C R, Side: L R, LFE
Частота : 48,0 КГц
Частота кадров : 31,250 кадров/сек (1536 spf)
Битовая глубина : 16 бит
Метод сжатия : С потерями
Размер потока : 608 Мбайт (7%)
Заголовок : English DD 5.1
Язык : English
Service kind : Complete Main
Default : Нет
Alternate group : 1
Дата кодирования : UTC 2017-03-10 15:57:50
Дата пометки : UTC 2017-03-10 15:57:50
Fallback To : 3
Текст #1
Идентификатор : 6
Формат : Timed Text
Режим смешивания : sbtl
Идентификатор кодека : tx3g
Продолжительность : 2 ч. 12 м.
Вид битрейта : Переменный
Битрейт : 2 бит/сек
Размер потока : 1,97 Кбайт (0%)
Заголовок : Russian forced
Язык : Russian
Default : Да
Forced : Да
Alternate group : 2
Дата кодирования : UTC 2017-03-10 15:57:50
Дата пометки : UTC 2017-03-10 15:57:50
Subtitles For : 2,4
Full Alternative : 7
Текст #2
Идентификатор : 7
Формат : Timed Text
Режим смешивания : sbtl
Идентификатор кодека : tx3g
Продолжительность : 2 ч. 12 м.
Вид битрейта : Переменный
Битрейт : 58 бит/сек
Размер потока : 56,8 Кбайт (0%)
Заголовок : Russsian full
Язык : Russian
Default : Нет
Forced : Нет
Alternate group : 2
Дата кодирования : UTC 2017-03-10 15:57:50
Дата пометки : UTC 2017-03-10 15:57:50
Subtitles For : 2,4
Forced Alternative : 6
Текст #3
Идентификатор : 8
Формат : Timed Text
Режим смешивания : sbtl
Идентификатор кодека : tx3g
Продолжительность : 2 ч. 12 м.
Вид битрейта : Переменный
Битрейт : 50 бит/сек
Размер потока : 48,9 Кбайт (0%)
Заголовок : English full
Язык : English
Default : Нет
Forced : Нет
Alternate group : 2
Дата кодирования : UTC 2017-03-10 15:57:50
Дата пометки : UTC 2017-03-10 15:57:50
Меню #1
00:00:00.000 : 00:00:00.000
00:08:40.270 : 00:08:40.270
00:18:55.718 : 00:18:55.718
00:28:23.660 : 00:28:23.660
00:38:34.187 : 00:38:34.187
00:48:08.594 : 00:48:08.594
00:58:19.246 : 00:58:19.246
01:09:14.692 : 01:09:14.692
01:17:26.392 : 01:17:26.392
01:29:33.660 : 01:29:33.660
01:38:02.168 : 01:38:02.085
01:50:27.871 : 01:50:27.871
01:59:04.512 : 01:59:04.471
02:04:11.945 : 02:04:11.944
Меню #2
Идентификатор : 9
Идентификатор кодека : text
Продолжительность : 2 ч. 12 м.
Язык : English
Дата кодирования : UTC 2017-03-10 15:57:50
Дата пометки : UTC 2017-03-10 15:57:50
Вид битрейта : CBR
Menu For : 2,1
00:00:00.000 : 00:00:00.000
00:08:40.270 : 00:08:40.270
00:18:55.718 : 00:18:55.718
00:28:23.660 : 00:28:23.660
00:38:34.187 : 00:38:34.187
00:48:08.594 : 00:48:08.594
00:58:19.246 : 00:58:19.246
01:09:14.692 : 01:09:14.692
01:17:26.392 : 01:17:26.392
01:29:33.660 : 01:29:33.660
01:38:02.168 : 01:38:02.085
01:50:27.871 : 01:50:27.871
01:59:04.512 : 01:59:04.471
02:04:11.945 : 02:04:11.944

Скриншоты




Релиз подготовлен для просмотра на Apple TV, iPad, iPhone, iPod Touch.
Для просмотра данного релиза на компьютере с ОС Windows рекомендуется использовать VLC media player




Less time searching
more time doing

Toomac has more than 1500 other beautifully designed tools in one collection. No ads, no in-app purchases, no paying for updates. Just apps, fully unlocked. Toomac is $9.99/month. You get an entire week free to try it out.


Get started Free trial for 7 days.

The 9th Life of Louis Drax / Девятая жизнь Луи Дракса [2016 г., Триллер, детектив, BDRip 1080p]

Powered by TorrentPier II © Meithar, TorrentPier II Team