Keeping Up with the Joneses / Шпионы по соседству [2016, Боевик, Комедия, BDRip 1080p]

КОММЕНТАРИИ

Likes


Keeping Up with the Joneses / Шпионы по соседству- Производство: США / Fox 2000 Pictures, MacDonald/Parkes Productions
Жанр: Боевик, Комедия
Продолжительность: 01:45:20
Перевод: Дублированный (Blu-ray EUR)
Режиссер: Грег Моттола
В ролях:
Зак Галифианакис, Айла Фишер, Джон Хэмм, Галь Гадот, Пэттон Освальт, Минг Жао, Мэтт Уолш, Мэрибет Монро, Майкл Лью, Кевин Данн, Дайо Абаниканда
Описание:
Супружеская пара из пригорода оказывается втянутой в международный шпионский заговор, когда обнаруживает, что их, казалось бы, идеальные новые соседи являются правительственными агентами.

Рейтинг MPAA: PG-13 (детям до 13 лет просмотр нежелателен)
Дата мировой премьеры: 19 октября 2016
Дата российской премьеры: 10 ноября 2016, «Двадцатый Век Фокс СНГ»

-
Качество: BDRip 1080p
Формат: MP4
Видео: AVC, 9286 Kbps avg, 1920x800, 24 fps
Аудио 1: Русский, AAC, 2 ch, 164 Kbps, 48 kHz, Stereo
Аудио 2: Украинский, AC-3, 6 ch, 224 Kbps, 48 kHz, Surround
Аудио 3: Английский, AC-3, 7.1, 2 ch, 164 Kbps, 48 kHz, Stereo
Cубтитры: Русский (Forced, Full), Украинский, Английский
Вид субтитров: Вшитые, отключаемые

А вы знали что...

» Некоторые эпизоды фильма снимались в «Red Brick Brewing Company», самой старой пивоварне в штате Джорджия.

Mediainfo


Общее
Полное имя : /Volumes/MEDIA/Шпионы по соседству_BDRip_1080p.mp4
Формат : MPEG-4
Профиль формата : Base Media / Version 2
Идентификатор кодека : mp42 (isom/iso2/avc1/mp41)
Размер файла : 7,25 Гбайт
Продолжительность : 1 ч. 45 м.
Режим общего битрейта : Переменный
Общий поток : 9854 Кбит/сек
Дата кодирования : UTC 2017-03-11 23:42:33
Дата пометки : UTC 2017-03-11 23:42:33
Программа кодирования : HandBrake 1.0.3 2017022500
Видео
Идентификатор : 1
Формат : AVC
Формат/Информация : Advanced Video Codec
Профиль формата : [email protected]
Параметр CABAC формата : Да
Параметр ReFrames формата : 4 кадра
Идентификатор кодека : avc1
Идентификатор кодека/Информация : Advanced Video Coding
Продолжительность : 1 ч. 45 м.
Битрейт : 9286 Кбит/сек
Ширина : 1920 пикселей
Высота : 800 пикселей
Соотношение сторон : 2,40:1
Режим частоты кадров : Переменный
Частота кадров : 23,976 (24000/1001) кадра/сек
Минимальная частота кадров : 23,974 кадра/сек
Максимальная частота кадров : 23,981 кадра/сек
Цветовое пространство : YUV
Субдискретизация насыщенности : 4:2:0
Битовая глубина : 8 бит
Тип развёртки : Прогрессивная
Бит/(Пиксели*Кадры) : 0.252
Размер потока : 6,83 Гбайт (94%)
Библиотека кодирования : x264 core 148 r2708 86b7198
Настройки программы : cabac=1 / ref=3 / deblock=1:0:0 / analyse=0x3:0x113 / me=hex / subme=7 / psy=1 / psy_rd=1.00:0.00 / mixed_ref=1 / me_range=16 / chroma_me=1 / trellis=1 / 8x8dct=1 / cqm=0 / deadzone=21,11 / fast_pskip=1 / chroma_qp_offset=-2 / threads=6 / lookahead_threads=1 / sliced_threads=0 / nr=0 / decimate=1 / interlaced=0 / bluray_compat=0 / constrained_intra=0 / bframes=3 / b_pyramid=2 / b_adapt=1 / b_bias=0 / direct=1 / weightb=1 / open_gop=0 / weightp=2 / keyint=240 / keyint_min=24 / scenecut=40 / intra_refresh=0 / rc_lookahead=40 / rc=crf / mbtree=1 / crf=20.0 / qcomp=0.60 / qpmin=0 / qpmax=69 / qpstep=4 / vbv_maxrate=25000 / vbv_bufsize=31250 / crf_max=0.0 / nal_hrd=none / filler=0 / ip_ratio=1.40 / aq=1:1.00
Дата кодирования : UTC 2017-03-10 23:42:33
Дата пометки : UTC 2017-03-10 23:42:33
Цветовой диапазон : Limited
Основные цвета : BT.709
Характеристики трансфера : BT.709
Коэффициенты матрицы : BT.709
Menus : 5
Аудио #1
Идентификатор : 2
Формат : AAC
Формат/Информация : Advanced Audio Codec
Профиль формата : LC
Идентификатор кодека : 40
Продолжительность : 1 ч. 45 м.
Вид битрейта : Переменный
Битрейт : 164 Кбит/сек
Каналы : 2 канала
Расположение каналов : Front: L R
Частота : 48,0 КГц
Частота кадров : 46,875 кадров/сек (1024 spf)
Метод сжатия : С потерями
Размер потока : 123 Мбайт (2%)
Заголовок : Stereo / Stereo
Язык : Russian
Default : Да
Alternate group : 1
Дата кодирования : UTC 2017-03-10 23:42:33
Дата пометки : UTC 2017-03-10 23:42:33
Menus : 5
Аудио #2
Идентификатор : 3
Формат : AC-3
Формат/Информация : Audio Coding 3
Параметр Endianness формата : Big
Идентификатор кодека : ac-3
Продолжительность : 1 ч. 45 м.
Вид битрейта : Постоянный
Битрейт : 224 Кбит/сек
Каналы : 6 каналов
Расположение каналов : Front: L C R, Side: L R, LFE
Частота : 48,0 КГц
Частота кадров : 31,250 кадров/сек (1536 spf)
Битовая глубина : 16 бит
Метод сжатия : С потерями
Размер потока : 169 Мбайт (2%)
Заголовок : Surround / Surround
Язык : Ukrainian
Service kind : Complete Main
Default : Нет
Alternate group : 1
Дата кодирования : UTC 2017-03-10 23:42:33
Дата пометки : UTC 2017-03-10 23:42:33
Menus : 5
Аудио #3
Идентификатор : 4
Формат : AAC
Формат/Информация : Advanced Audio Codec
Профиль формата : LC
Идентификатор кодека : 40
Продолжительность : 1 ч. 45 м.
Вид битрейта : Переменный
Битрейт : 164 Кбит/сек
Каналы : 2 канала
Расположение каналов : Front: L R
Частота : 48,0 КГц
Частота кадров : 46,875 кадров/сек (1024 spf)
Метод сжатия : С потерями
Размер потока : 124 Мбайт (2%)
Заголовок : Stereo / Stereo
Язык : English
Default : Нет
Alternate group : 1
Дата кодирования : UTC 2017-03-10 23:42:33
Дата пометки : UTC 2017-03-10 23:42:33
Menus : 5
Меню
Идентификатор : 5
Идентификатор кодека : text
Продолжительность : 1 ч. 45 м.
Язык : English
Дата кодирования : UTC 2017-03-10 23:42:33
Дата пометки : UTC 2017-03-10 23:42:33
Вид битрейта : CBR
Menu For : 1,2,3,4
00:00:00.000 : 00:00:00.000
00:03:43.473 : 00:03:43.473
00:06:41.651 : 00:06:41.651
00:09:55.887 : 00:09:55.845
00:13:28.182 : 00:13:28.182
00:17:06.108 : 00:17:06.025
00:21:07.975 : 00:21:07.933
00:26:02.311 : 00:26:02.311
00:30:07.514 : 00:30:07.514
00:33:56.785 : 00:33:56.743
00:37:43.762 : 00:37:43.761
00:40:59.540 : 00:40:59.457
00:45:35.149 : 00:45:35.149
00:49:00.479 : 00:49:00.312
00:52:35.152 : 00:52:35.152
00:55:59.189 : 00:55:59.189
01:00:50.480 : 01:00:50.230
01:04:33.244 : 01:04:33.244
01:08:47.832 : 01:08:47.665
01:12:04.654 : 01:12:04.654
01:15:58.637 : 01:15:58.554
01:19:31.809 : 01:19:31.809
01:22:46.712 : 01:22:46.545
01:25:44.139 : 01:25:43.972
01:29:02.462 : 01:29:02.295
01:31:44.874 : 01:31:44.874
01:34:18.528 : 01:34:18.528
01:37:32.847 : 01:37:32.680

Скриншоты




Релиз подготовлен для просмотра на Apple TV, iPad, iPhone, iPod Touch.
Для просмотра данного релиза на компьютере с ОС Windows рекомендуется использовать VLC media player




Less time searching
more time doing

Toomac has more than 1500 other beautifully designed tools in one collection. No ads, no in-app purchases, no paying for updates. Just apps, fully unlocked. Toomac is $9.99/month. You get an entire week free to try it out.


Get started Free trial for 7 days.

Keeping Up with the Joneses / Шпионы по соседству [2016, Боевик, Комедия, BDRip 1080p]

Powered by TorrentPier II © Meithar, TorrentPier II Team