Assassin's Creed / Кредо убийцы [2016 г., Фантастика, фэнтези, боевик, приключения, WEB-DL 1080p]

КОММЕНТАРИИ

Likes



Assassin's Creed / Кредо убийцы
«Welcome to the Spanish Inquisition»

- Год выпуска: 2016
Производство: Великобритания, Франция, Гонконг, США, Тайвань, Мальта, Канада
Жанр: Фантастика, фэнтези, боевик, приключения
Продолжительность: 01:56:19
Перевод: Дублированный (LINE)
Субтитры: Русские, Английские форсированные, Английские
Режиссер: Джастин Курзель
В ролях:
Майкл Фассбендер, Марион Котийяр, Джереми Айронс, Брендан Глисон, Шарлотта Рэмплинг, Майкл Кеннет Уильямс, Дени Меноше, Ариана Лабед, Халид Абдалла, Эсси Дэвис ...
Описание:
Благодаря революционным технологиям, позволяющим вызвать в памяти воспоминания прежних поколений, Каллум Линч проживает приключения своего предка Агилара в Испании 15-го века. Каллум узнает, что является потомком членов загадочного тайного общества ассасинов. Накопив невероятные знания и навыки, он вступает в противостояние с могущественной и жестокой организацией тамплиеров в наши дни.

Качество: WEB-DL 1080p
Формат видео: M4V
Видео: H.264, 1916x800, 2.40:1, 4 575 Kbps, 23.976 fps
Аудио 1: Русский/Дублированный (LINE), AAC / 2.0 / 160 Kbps / 48.0 KHz
Аудио 2: Английский/Оригинальная дорожка , AAC / 2.0 / 160 Kbps / 48.0 KHz
Аудио 3: Английский/Оригинальная дорожка , AC-3 / 5.1 / 384 Kbps / 48.0 KHz
Релиз подготовлен: kosatka ®

Рецензия

Mediainfo


General
Complete name : /Users/imac/HandBrake/Assassins.Creed.WEB-DL.1080p.Line.m4v
Format : MPEG-4
Codec ID : M4V
File size : 4.29 GiB
Duration : 1h 56mn
Overall bit rate mode : Variable
Overall bit rate : 5 277 Kbps
Movie name : Assassin's Creed
Performer : Justin Kurzel
Director : Джастин Курзель
Actor : Майкл Фассбендер / Марион Котийяр / Джереми Айронс / Брендан Глисон / Шарлотта Рэмплинг / Майкл Кеннет Уильямс / Дени Меноше / Ариана Лабед / Халид Абдалла / Эсси Дэвис / Илья Исаев / Елена Шульман / Валерий Сторожик / Борис Быстров / Ольга Кузнецова
Screenplay by : Майкл Лессли / Адам Купер / Билл Колладж
Producer : Маркус Барметтлер / Жан-Жюльен Баронне / Кристин Бёрджесс-Кемар
Production studio : 20th Century Fox
Genre : Action & Adventure
ContentType : Short Film
Description : Благодаря революционным технологиям, позволяющим вызвать в памяти воспоминания прежних поколений, Каллум Линч проживает приключения своего предка Агилара в Испании 15-го века. Каллум узнает, что является потомком членов загадочного тайного общества ассасинов. Накопив невероятные знания и навыки, он вступает в противостояние с могущественной и жестокой организацией тамплиеров в наши дни.
Recorded date : UTC 2016-12-13 08:00:00
Encoded date : UTC 2017-03-11 11:46:07
Tagged date : UTC 2017-03-11 11:53:57
Copyright : © 2016 Twentieth Century Fox Film Corporation and Ubisoft Motion Pictures Assassin\'s Creed. All rights reserved.
Cover : Yes
Rating : None
Title/Sort : Assassin's Creed
LongDescription : Благодаря революционным технологиям, позволяющим вызвать в памяти воспоминания прежних поколений, Каллум Линч проживает приключения своего предка Агилара в Испании 15-го века. Каллум узнает, что является потомком членов загадочного тайного общества ассасинов. Накопив невероятные знания и навыки, он вступает в противостояние с могущественной и жестокой организацией тамплиеров в наши дни.
AppleStoreCatalogID : 1181299509
Vendor : Apple:vendor_id:2016-690615
ContentRating : mpaa|PG-13|300|
Video #1
ID : 1
Format : AVC
Format/Info : Advanced Video Codec
Format profile : [email protected]
Format settings, CABAC : Yes
Format settings, ReFrames : 5 frames
Codec ID : avc1
Codec ID/Info : Advanced Video Coding
Duration : 1h 56mn
Source duration : 1h 56mn
Bit rate : 4 575 Kbps
Width : 1 916 pixels
Height : 800 pixels
Display aspect ratio : 2.40:1
Frame rate mode : Variable
Frame rate : 23.976 fps
Minimum frame rate : 22.727 fps
Maximum frame rate : 24.390 fps
Color space : YUV
Chroma subsampling : 4:2:0
Bit depth : 8 bits
Scan type : Progressive
Bits/(Pixel*Frame) : 0.124
Stream size : 3.72 GiB (87%)
Source stream size : 3.72 GiB (87%)
Title : Main Program
Language : English
Encoded date : UTC 2017-03-11 11:46:07
Tagged date : UTC 2017-03-11 11:46:38
Color range : Limited
Color primaries : BT.709
Transfer characteristics : BT.709
Matrix coefficients : BT.709
Video #2
ID : 9
Format : JPEG
Codec ID : jpeg
Duration : 1h 56mn
Bit rate mode : Variable
Bit rate : 696 bps
Width : 640 pixels
Height : 267 pixels
Display aspect ratio : 2.40:1
Frame rate mode : Variable
Frame rate : 0.003 fps
Minimum frame rate : 0.001 fps
Maximum frame rate : 0.006 fps
Color space : YUV
Chroma subsampling : 4:2:0
Bit depth : 8 bits
Compression mode : Lossy
Bits/(Pixel*Frame) : 1.358
Stream size : 680 KiB (0%)
Title : Chapter Images
Language : English
Encoded date : UTC 2017-03-11 11:46:47
Tagged date : UTC 2017-03-11 11:46:48
Audio #1
ID : 2
Format : AAC
Format/Info : Advanced Audio Codec
Format profile : LC
Codec ID : 40
Duration : 1h 55mn
Bit rate mode : Variable
Bit rate : 156 Kbps
Maximum bit rate : 226 Kbps
Channel(s) : 2 channels
Channel positions : Front: L R
Sampling rate : 48.0 KHz
Compression mode : Lossy
Stream size : 129 MiB (3%)
Title : Russian Stereo
Language : Russian
Encoded date : UTC 2017-03-11 11:46:07
Tagged date : UTC 2017-03-11 11:46:15
Audio #2
ID : 3
Format : AAC
Format/Info : Advanced Audio Codec
Format profile : LC
Codec ID : 40
Duration : 1h 55mn
Bit rate mode : Variable
Bit rate : 157 Kbps
Maximum bit rate : 229 Kbps
Channel(s) : 2 channels
Channel positions : Front: L R
Sampling rate : 48.0 KHz
Compression mode : Lossy
Stream size : 129 MiB (3%)
Title : English Stereo
Language : English
Encoded date : UTC 2017-03-11 11:46:07
Tagged date : UTC 2017-03-11 11:46:38
Audio #3
ID : 4
Format : AC-3
Format/Info : Audio Coding 3
Mode extension : CM (complete main)
Format settings, Endianness : Big
Codec ID : ac-3
Duration : 1h 55mn
Bit rate mode : Constant
Bit rate : 384 Kbps
Channel(s) : 6 channels
Channel positions : Front: L C R, Side: L R, LFE
Sampling rate : 48.0 KHz
Bit depth : 16 bits
Compression mode : Lossy
Stream size : 317 MiB (7%)
Title : English DD 5.1
Language : English
Encoded date : UTC 2017-03-11 11:46:07
Tagged date : UTC 2017-03-11 11:46:38
Text #1
ID : 5
Format : Timed Text
Muxing mode : sbtl
Codec ID : tx3g
Duration : 1h 39mn
Bit rate mode : Variable
Bit rate : 47 bps
Stream size : 34.2 KiB (0%)
Title : Russian full
Language : Russian
Encoded date : UTC 2017-03-11 11:46:07
Tagged date : UTC 2017-03-11 11:46:30
Text #2
ID : 6
Format : Timed Text
Muxing mode : sbtl
Codec ID : tx3g
Duration : 1h 20mn
Bit rate mode : Variable
Bit rate : 6 bps
Stream size : 3.27 KiB (0%)
Title : English forced
Language : English
Encoded date : UTC 2017-03-11 11:46:07
Tagged date : UTC 2017-03-11 11:46:24
Text #3
ID : 7
Format : Timed Text
Muxing mode : sbtl
Codec ID : tx3g
Duration : 1h 39mn
Bit rate mode : Variable
Bit rate : 28 bps
Stream size : 20.3 KiB (0%)
Title : English full
Language : English
Encoded date : UTC 2017-03-11 11:46:07
Tagged date : UTC 2017-03-11 11:46:31
Menu #1
00:00:00.000 : Chapter 01
00:06:02.153 : Chapter 02
00:09:30.694 : Chapter 03
00:12:45.513 : Chapter 04
00:16:45.711 : Chapter 05
00:21:05.429 : Chapter 06
00:26:54.444 : Chapter 07
00:31:53.075 : Chapter 08
00:38:04.279 : Chapter 09
00:41:41.162 : Chapter 10
00:46:31.035 : Chapter 11
00:50:08.252 : Chapter 12
00:53:02.384 : Chapter 13
00:56:15.618 : Chapter 14
00:59:24.473 : Chapter 15
01:02:30.575 : Chapter 16
01:06:35.027 : Chapter 17
01:13:06.752 : Chapter 18
01:18:43.880 : Chapter 19
01:23:59.153 : Chapter 20
01:30:15.988 : Chapter 21
01:34:16.186 : Chapter 22
01:37:43.184 : Chapter 23
01:40:49.203 : Chapter 24
Menu #2
ID : 8
Codec ID : text
Duration : 1h 56mn
Language : English
Encoded date : UTC 2017-03-11 11:46:38
Tagged date : UTC 2017-03-11 11:46:38
Bit rate mode : CBR
00:00:00.000 : Chapter 01
00:06:02.153 : Chapter 02
00:09:30.694 : Chapter 03
00:12:45.513 : Chapter 04
00:16:45.711 : Chapter 05
00:21:05.429 : Chapter 06
00:26:54.444 : Chapter 07
00:31:53.075 : Chapter 08
00:38:04.279 : Chapter 09
00:41:41.162 : Chapter 10
00:46:31.035 : Chapter 11
00:50:08.252 : Chapter 12
00:53:02.384 : Chapter 13
00:56:15.618 : Chapter 14
00:59:24.473 : Chapter 15
01:02:30.575 : Chapter 16
01:06:35.027 : Chapter 17
01:13:06.752 : Chapter 18
01:18:43.880 : Chapter 19
01:23:59.153 : Chapter 20
01:30:15.988 : Chapter 21
01:34:16.186 : Chapter 22
01:37:43.184 : Chapter 23
01:40:49.203 : Chapter 24

Скриншоты




Релиз подготовлен для просмотра на Apple TV, iPad, iPhone, iPod Touch.
Для просмотра данного релиза на компьютере с ОС Windows рекомендуется использовать VLC media player




Less time searching
more time doing

Toomac has more than 1500 other beautifully designed tools in one collection. No ads, no in-app purchases, no paying for updates. Just apps, fully unlocked. Toomac is $9.99/month. You get an entire week free to try it out.


Get started Free trial for 7 days.

Assassin's Creed / Кредо убийцы [2016 г., Фантастика, фэнтези, боевик, приключения, WEB-DL 1080p]

Powered by TorrentPier II © Meithar, TorrentPier II Team