Красавица и чудовище / Beauty and the Beast (Билл Кондон) [2017 г., Мюзикл, Фэнтези, Мелодрама, Семейный, BDRip 1080p]

КОММЕНТАРИИ

Likes




Красавица и чудовище / Beauty and the Beast

«Вы наш гость»

7.5 / 10 6.9 / 10

-
Год выпуска: 2017
Производство: США
Жанр: Мюзикл, Фэнтези, Мелодрама, Семейный
Продолжительность: 02:09:17
Перевод: Дублированный | iTunes
Субтитры: Русские, Английские
Реклама: Отсутствует
Возраст: 16+ (зрителям, достигшим 16 лет)
Рейтинг MPAA: PG (рекомендуется присутствие родителей)
Дата мировой премьеры: 23 февраля 2017
Дата российской премьеры: 16 марта 2017, «WDSSPR»
Дата выхода DVD/Blu-ray релиза: 22 августа 2017, «Уолт Дисней Компани СНГ»
-
Режисер
Билл Кондон
Продюсер
Стив Гауб, Дон Хан, Дэвид Хоберман
Актеры
Эмма Уотсон, Дэн Стивенс, Люк Эванс, Джош Гэд, Кевин Клайн, Хэтти Морахэн, Хейдн Гвин, Джерард Хоран, Рэй Фиарон, Эван МакГрегор
Описание
Обозлённая Волшебница превратила принца Адама в отвратительное чудовище за то, что тот был злым, самовлюблённым и грубым. Чтобы снять чары с себя и слуг своего замка, ему необходимо научиться быть добрым, любить и быть любимым. Произойти это должно до того, как с розы, подаренной Волшебницей, упадёт последний лепесток.
В далёкой деревушке живёт красивая девушка по имени Белль. Однажды её отец Морис отправляется на ярмарку, но по дороге сбивается с пути. Оказавшись в заколдованном замке, он становится пленником Чудовища. Белль спешит отцу на помощь.

-Качество: BDRip 1080p
Формат: M4V
Видео: AVC/H.264, 1920x804, ~8000 Кбит/сек, 25 fps
Аудио 1: AAC, 2 ch, 197 kbps, 48 kHz | DUB | Русский
Аудио 2: AAC, 2 ch, 198 kbps, 48 kHz | Original | Английский
Аудио 3: AC3, 6 ch, 384 kbps, 48 kHz, | DUB | Русский
Аудио 3: AC3, 6 ch, 640 kbps, 48 kHz, | Original | Английский

iTunes Meta Tags

Name: Beauty and the Beast (2017)
Artist: Bill Condon
Genre: Kids & Family
Release Date: 2017-02-23T08:00:00Z
Description: Обозлённая Волшебница превратила принца Адама в отвратительное чудовище за то, что тот был злым, самовлюблённым и грубым. Чтобы снять чары с себя и слуг своего замка, ему необходимо научиться быть добрым, любить и быть любимым. Произойти это должно до того, как с розы, подаренной Волшебницей, упадёт последний лепесток. В далёкой деревушке живёт красивая девушка по имени Белль. Однажды её отец Морис отправляется на ярмарку, но по дороге сбивается с пути. Оказавшись в заколдованном замке, он становится пленником Чудовища. Белль спешит отцу на помощь.
Long Description: Обозлённая Волшебница превратила принца Адама в отвратительное чудовище за то, что тот был злым, самовлюблённым и грубым. Чтобы снять чары с себя и слуг своего замка, ему необходимо научиться быть добрым, любить и быть любимым. Произойти это должно до того, как с розы, подаренной Волшебницей, упадёт последний лепесток.
В далёкой деревушке живёт красивая девушка по имени Белль. Однажды её отец Морис отправляется на ярмарку, но по дороге сбивается с пути. Оказавшись в заколдованном замке, он становится пленником Чудовища. Белль спешит отцу на помощь.
Rating: PG
Cast: Эмма Уотсон, Дэн Стивенс, Люк Эванс, Джош Гад, Кевин Клайн, Хэтти Морахэн, Хейдн Гвин, Джерард Хоран, Рэй Фиарон, Юэн МакГрегор, Юлия Довганишина, Андрей Бирин, Дмитрий Ермак, Вадим Мичман, Александр Давыдов
Director: Билл Кондон
Producers: Стив Гауб, Дон Хан, Дэвид Хоберман
Screenwriters: Стивен Чбоски, Эван Спилиотопулос, Жанна-Мари Лепренс де Бомон
contentID: 1212678379
XID: Apple:vendor_id:2017-744987
Sort Name: Beauty and the Beast (2017)

MI

General
Complete name                            : /Volumes/CLOUD/___inmac_films2/Красавица и Чудовище (2017) 1080p.m4v
Format                                   : MPEG-4
Codec ID                                 : M4V  (M4V /M4A /mp42/isom)
File size                                : 8.51 GiB
Duration                                 : 2h 9mn
Overall bit rate mode                    : Variable
Overall bit rate                         : 9 428 Kbps
Movie name                               : Красавица и чудовище
Performer                                : Bill Condon
Director                                 : Bill Condon
Actor                                    : Emma Watson / Dan Stevens / Luke Evans / Kevin Kline / Josh Gad / Ewan McGregor / Stanley Tucci / Audra McDonald / Gugu Mbatha-Raw / Ian McKellen / Emma Thompson / Nathan Mack / Hattie Morahan / Adrian Schiller / Gerard Horan / Haydn Gwynne / Ray Fearon / Clive Rowe / Thomas Padden / Alexis Loizon / Jimmy Johnston / Dean Street / Michael Jibson / Zoe Rainey / Jolyon Coy / Rudi Goodman / Henry Garrett / Harriet Jones / Sophie Reid / Rafaëlle Cohen / Carla Nella / Tom Oakley / Beth Willetts / Simone Sault / Mandy Montanez / Leo Andrew / Steven Butler / Daniel Ioannou / Dale Branston / Lynne Wilmot / Jane Fowler / D.J. Bailey / Rita Davies / Sharon Gomez / Daisy Duczmal / Harry Marcus / Oscar Francisco / Kai Gordon / Tom Burgering / Joey Brown / Freddie Hunter / Daniel Daszek-Green / Samuel Brown / Max Brophy / Skye Lucia Degruttola / Lara Decaro / Gemma Fray / Adelaide Morgan / Timia Julien-Box / Sonoya Mizuno / Abigayle Honeywill / Jazz Peters / Lily Frazer / Stephanie Elstob / Nicole O'Neill / Cassie Clare / Sophie Carmen-Jones / Sophia Brown / Leah West / Naomi Weijand / Jasmine Takacs / Ruth Steele / Lucy St Louis / Katie Singh / Kayla Radam / Courtney Pruce / Nicola Mooi / Anna Momcilovic / Samira Mighty / Fiona McDonald / Abiona Omonua / Cassie Macmillian / Emily Loumba / Jennifer Leung / Ella Kora / Hannah Kenna-Thomas / Billie Kay-Piper / Shireen Jathoonia / Blythe Jandoo / Chelsea Inez / Leah Hill / Selina Hamilton / Helen Gulstan / Lucy Alexa Gilbert / Cj Field / Cordelia Farnworth / Paige Drury-Lawrence / Natalie Davis / Tanya Cumberland / Ava Brennan / Daisy Boyles / Holly Bluett / Koko Basigara / Sophie Atkins / Gabby Antrobus / Rhianne Alleyn / Hayley Ainsley / Danielle Acors / Marina Abdeen / Nathan Vaughan Harris / Ben Clare / Ben Fox / Tim Stanley / Jody Hall / Rebecca Mckinnis / Dawn Buckland / Ellen O'Grady / Alison Jenkins / Ebony Molina / Nicola Keen / Freddie August / Phil Grannel / Jak Allen-Anderson / William Bozier / Vivien Parry / Jacqui Jameson / Norma Atallah / Wendy Baldock / Peter Challis / Sandy Strallen / Jemma Alexander / Chris Andrew Mellon / Alison Harding / Obioma Ugoala / Gizmo / Alex Gillison / Dan Trotter / Karl Farrer / Charlotte Worwood / Marat Khairoullin / Johanna Smitz / Lindy Pieri / Tyrone Love / Alona Leoine / Erica Melargo / Richard Banks / Jeremy Cave / Luke Fictitious / Chloe Collingwood / Isobel Hamilton / Rossana Silva / Crystal Compton / Marlonde Pierre / Paul De La Rosa / Clem So / Teresa Shaughnessy
Screenplay by                            : Stephen Chbosky / Linda Woolverton / Evan Spiliotopoulos
Producer                                 : David Hoberman / Todd Lieberman
Executive producer                       : Don Hahn, Jeffrey Silver, Thomas Schumacher
Production studio                        : Walt Disney Pictures, Mandeville Films
Genre                                    : музыка, семейный, фэнтези, мелодрама
ContentType                              : Short Film
Description                              : Обозлённая Волшебница превратила принца Адама в отвратительное чудовище за то, что тот был злым, самовлюблённым и грубым. Чтобы снять чары с себя и слуг своего замка, ему необходимо научиться быть добрым, любить и быть любимым. Произойти это должно до того, как с розы, подаренной Волшебницей, упадёт последний лепесток.  В далёкой деревушке живёт красивая девушка по имени Белль. Однажды её отец Морис отправляется на ярмарку, но по дороге сбивается с пути. Оказавшись в заколдованном замке, он становится пленником Чудовища. Белль спешит отцу на помощь.
Recorded date                            : 2017-03-16
Encoded date                             : UTC 2017-06-12 10:08:52
Tagged date                              : UTC 2017-06-12 10:19:10
Cover                                    : Yes
LongDescription                          : Обозлённая Волшебница превратила принца Адама в отвратительное чудовище за то, что тот был злым, самовлюблённым и грубым. Чтобы снять чары с себя и слуг своего замка, ему необходимо научиться быть добрым, любить и быть любимым. Произойти это должно до того, как с розы, подаренной Волшебницей, упадёт последний лепесток.  В далёкой деревушке живёт красивая девушка по имени Белль. Однажды её отец Морис отправляется на ярмарку, но по дороге сбивается с пути. Оказавшись в заколдованном замке, он становится пленником Чудовища. Белль спешит отцу на помощь.
ContentRating                            : mpaa|PG|200|
Video #1
ID                                       : 1
Format                                   : AVC
Format/Info                              : Advanced Video Codec
Format profile                           : [email protected]
Format settings, CABAC                   : Yes
Format settings, ReFrames                : 5 frames
Codec ID                                 : avc1
Codec ID/Info                            : Advanced Video Coding
Duration                                 : 2h 9mn
Bit rate                                 : 8 000 Kbps
Width                                    : 1 920 pixels
Height                                   : 804 pixels
Display aspect ratio                     : 2.40:1
Frame rate mode                          : Variable
Frame rate                               : 23.976 (24000/1001) fps
Minimum frame rate                       : 23.810 fps
Maximum frame rate                       : 24.390 fps
Color space                              : YUV
Chroma subsampling                       : 4:2:0
Bit depth                                : 8 bits
Scan type                                : Progressive
Bits/(Pixel*Frame)                       : 0.216
Stream size                              : 7.22 GiB (85%)
Writing library                          : x264 core 146 r2538 121396c
Encoding settings                        : cabac=1 / ref=5 / deblock=1:-3:-3 / analyse=0x3:0x133 / me=umh / subme=11 / psy=1 / psy_rd=1.05:0.05 / mixed_ref=1 / me_range=64 / chroma_me=1 / trellis=2 / 8x8dct=1 / cqm=0 / deadzone=21,11 / fast_pskip=0 / chroma_qp_offset=-3 / threads=6 / lookahead_threads=1 / sliced_threads=0 / nr=0 / decimate=0 / interlaced=0 / bluray_compat=0 / constrained_intra=0 / bframes=8 / b_pyramid=2 / b_adapt=2 / b_bias=0 / direct=3 / weightb=1 / open_gop=0 / weightp=2 / keyint=240 / keyint_min=23 / scenecut=40 / intra_refresh=0 / rc_lookahead=50 / rc=2pass / mbtree=0 / bitrate=8000 / ratetol=1.0 / qcomp=0.60 / qpmin=0 / qpmax=69 / qpstep=4 / cplxblur=20.0 / qblur=0.5 / vbv_maxrate=50000 / vbv_bufsize=62500 / nal_hrd=none / filler=0 / ip_ratio=1.40 / pb_ratio=1.30 / aq=1:0.80
Language                                 : English
Encoded date                             : UTC 2017-06-12 10:08:52
Tagged date                              : UTC 2017-06-12 10:18:42
Menus                                    : 10,11
Video #2
ID                                       : 11
Format                                   : JPEG
Codec ID                                 : jpeg
Duration                                 : 2h 9mn
Bit rate mode                            : Variable
Bit rate                                 : 903 bps
Width                                    : 640 pixels
Height                                   : 268 pixels
Display aspect ratio                     : 2.40:1
Frame rate mode                          : Variable
Frame rate                               : 0.003 fps
Minimum frame rate                       : 0.002 fps
Maximum frame rate                       : 0.007 fps
Color space                              : YUV
Chroma subsampling                       : 4:2:0
Bit depth                                : 8 bits
Compression mode                         : Lossy
Bits/(Pixel*Frame)                       : 1.755
Stream size                              : 882 KiB (0%)
Language                                 : English
Default                                  : No
Encoded date                             : UTC 2017-06-12 10:19:09
Tagged date                              : UTC 2017-06-12 10:19:10
Menu For                                 : 1
Audio #1
ID                                       : 2
Format                                   : AAC
Format/Info                              : Advanced Audio Codec
Format profile                           : LC
Codec ID                                 : 40
Duration                                 : 2h 9mn
Bit rate mode                            : Variable
Bit rate                                 : 197 Kbps
Maximum bit rate                         : 300 Kbps
Channel(s)                               : 2 channels
Channel positions                        : Front: L R
Sampling rate                            : 48.0 KHz
Frame rate                               : 46.875 fps (1024 spf)
Compression mode                         : Lossy
Stream size                              : 182 MiB (2%)
Language                                 : Russian
Default                                  : Yes
Alternate group                          : 1
Encoded date                             : UTC 2017-06-12 10:08:52
Tagged date                              : UTC 2017-06-12 10:18:42
Fallback From                            : 3
Audio #2
ID                                       : 3
Format                                   : AC-3
Format/Info                              : Audio Coding 3
Format settings, Endianness              : Big
Codec ID                                 : ac-3
Duration                                 : 2h 9mn
Bit rate mode                            : Constant
Bit rate                                 : 384 Kbps
Channel(s)                               : 6 channels
Channel positions                        : Front: L C R, Side: L R, LFE
Sampling rate                            : 48.0 KHz
Frame rate                               : 31.250 fps (1536 spf)
Bit depth                                : 16 bits
Compression mode                         : Lossy
Stream size                              : 354 MiB (4%)
Language                                 : Russian
Service kind                             : Complete Main
Default                                  : Inherited From: 2
Alternate group                          : 1
Encoded date                             : UTC 2017-06-12 10:08:52
Tagged date                              : UTC 2017-06-12 10:18:42
Fallback To                              : 2
Audio #3
ID                                       : 4
Format                                   : AAC
Format/Info                              : Advanced Audio Codec
Format profile                           : LC
Codec ID                                 : 40
Duration                                 : 2h 9mn
Bit rate mode                            : Variable
Bit rate                                 : 198 Kbps
Maximum bit rate                         : 309 Kbps
Channel(s)                               : 2 channels
Channel positions                        : Front: L R
Sampling rate                            : 48.0 KHz
Frame rate                               : 46.875 fps (1024 spf)
Compression mode                         : Lossy
Stream size                              : 183 MiB (2%)
Language                                 : English
Default                                  : No
Alternate group                          : 1
Encoded date                             : UTC 2017-06-12 10:08:52
Tagged date                              : UTC 2017-06-12 10:18:42
Fallback From                            : 5
Audio #4
ID                                       : 5
Format                                   : AC-3
Format/Info                              : Audio Coding 3
Format settings, Endianness              : Big
Codec ID                                 : ac-3
Duration                                 : 2h 9mn
Bit rate mode                            : Constant
Bit rate                                 : 640 Kbps
Channel(s)                               : 6 channels
Channel positions                        : Front: L C R, Side: L R, LFE
Sampling rate                            : 48.0 KHz
Frame rate                               : 31.250 fps (1536 spf)
Bit depth                                : 16 bits
Compression mode                         : Lossy
Stream size                              : 592 MiB (7%)
Language                                 : English
Service kind                             : Complete Main
Default                                  : No
Alternate group                          : 1
Encoded date                             : UTC 2017-06-12 10:08:52
Tagged date                              : UTC 2017-06-12 10:18:42
Fallback To                              : 4
Text #1
ID                                       : 6
Format                                   : Timed Text
Muxing mode                              : sbtl
Codec ID                                 : tx3g
Duration                                 : 2h 2mn
Bit rate mode                            : Variable
Bit rate                                 : 91 bps
Stream size                              : 81.4 KiB (0%)
Language                                 : Russian
Default                                  : Yes
Forced                                   : No
Alternate group                          : 2
Encoded date                             : UTC 2017-06-12 10:08:52
Tagged date                              : UTC 2017-06-12 10:18:42
Text #2
ID                                       : 7
Format                                   : Timed Text
Muxing mode                              : sbtl
Codec ID                                 : tx3g
Duration                                 : 2h 8mn
Bit rate mode                            : Variable
Bit rate                                 : 67 bps
Stream size                              : 63.3 KiB (0%)
Language                                 : English
Default                                  : No
Forced                                   : No
Alternate group                          : 2
Encoded date                             : UTC 2017-06-12 10:08:52
Tagged date                              : UTC 2017-06-12 10:18:42
Text #3
ID                                       : 8
Format                                   : Timed Text
Muxing mode                              : sbtl
Codec ID                                 : tx3g
Duration                                 : 2h 8mn
Bit rate mode                            : Variable
Bit rate                                 : 61 bps
Stream size                              : 57.9 KiB (0%)
Language                                 : English
Default                                  : No
Forced                                   : No
Alternate group                          : 2
Encoded date                             : UTC 2017-06-12 10:08:52
Tagged date                              : UTC 2017-06-12 10:18:42
Text #4
ID                                       : 9
Format                                   : Timed Text
Muxing mode                              : sbtl
Codec ID                                 : tx3g
Duration                                 : 2h 8mn
Bit rate mode                            : Variable
Bit rate                                 : 72 bps
Stream size                              : 67.8 KiB (0%)
Language                                 : English
Default                                  : No
Forced                                   : No
Alternate group                          : 2
Encoded date                             : UTC 2017-06-12 10:08:52
Tagged date                              : UTC 2017-06-12 10:18:42
Menu
ID                                       : 10
Codec ID                                 : text
Duration                                 : 2h 9mn
Language                                 : English
Encoded date                             : UTC 2017-06-12 10:18:42
Tagged date                              : UTC 2017-06-12 10:18:42
Menu For                                 : 1
00:00:00.000                             : Once Upon A Time
00:04:36.276                             : "Belle"
00:08:06.528                             : Monsiour Gaston
00:11:18.261                             : "How Does A Moment Last Forever" (Music Box)
00:15:21.546                             : "Belle" (Reprise)
00:18:57.386                             : Our Unwitting Host
00:25:05.921                             : "Forever Can Spare A Minute"
00:31:41.566                             : The East Wing
00:36:08.708                             : "Gaston"
00:42:32.258                             : Lonely
00:47:01.318                             : "Be Our Guest"
00:54:44.990                             : Saved By The Beast
01:00:43.557                             : "Days In The Sun"
01:07:40.932                             : "Something There"
01:14:38.224                             : "How Does A Moment Last Forever" (Montmartre)
01:19:43.696                             : Your Troubled Mind
01:22:02.751                             : "Beauty And The Beast"
01:28:53.370                             : "Evermore"
01:34:01.302                             : "The Mob Song"
01:38:10.176                             : "Attack!"
01:45:23.692                             : "I Am Not A Beast"
01:49:13.964                             : The Final Petal
01:55:54.197                             : "Beauty And The Beast" (Finale)
01:58:49.497                             : End Credits
Bit rate mode                            : VBR

Скриншоты





Less time searching
more time doing

Toomac has more than 1500 other beautifully designed tools in one collection. No ads, no in-app purchases, no paying for updates. Just apps, fully unlocked. Toomac is $9.99/month. You get an entire week free to try it out.


Get started Free trial for 7 days.

Красавица и чудовище / Beauty and the Beast (Билл Кондон) [2017 г., Мюзикл, Фэнтези, Мелодрама, Семейный, BDRip 1080p]

КОММЕНТАРИИ

Likes

Топик был перенесен из форума Тестовый раздел в форум Фильмы HD для Apple TV
Avo

Красавица и чудовище / Beauty and the Beast (Билл Кондон) [2017 г., Мюзикл, Фэнтези, Мелодрама, Семейный, BDRip 1080p]

Powered by TorrentPier II © Meithar, TorrentPier II Team