Красавица и чудовище / Beauty and the Beast (Билл Кондон) [2017, Mюзикл, фэнтези, мелодрама, семейный, BDRip]

КОММЕНТАРИИ

Likes


Красавица и чудовище / Beauty and the Beast- Год выпуска: 2017
Производство: США
Жанр: Mюзикл, фэнтези, мелодрама, семейный
Продолжительность: 02:09:16
Перевод: Дублированный (iTunes)
Субтитры: Русские, Английские-Режиссер: Билл Кондон
Актеры: Эмма Уотсон, Дэн Стивенс, Люк Эванс, Джош Гад, Кевин Клайн, Хэтти Морахэн, Хейдн Гвин, Джерард Хоран, Рэй Фиарон, Юэн МакГрегор-Описание: Обозлённая Волшебница превратила принца Адама в отвратительное чудовище за то, что тот был злым, самовлюблённым и грубым. Чтобы снять чары с себя и слуг своего замка, ему необходимо научиться быть добрым, любить и быть любимым. Произойти это должно до того, как с розы, подаренной Волшебницей, упадёт последний лепесток.-Качество: BDRip 480p
Контейнер: M4V
Видео: H.264, 640x356 анаморф 852х356, 2.40:1, 1 300 Kbps, 23.976 fps
Аудио 1: Русский/Дублированный (iTunes), AAC / 2.0 / 128 Kbps / 48.0 KHz
Аудио 2: Английский/Оригинальная дорожка , AAC / 2.0 / 128 Kbps / 48.0 KHz-

iTunes Meta Tags

Sort Name: Beauty and the Beast
XID: Apple:vendor_id:2017-744987
contentID: 1212678379
Copyright: © 2017 Disney Enterprises, Inc. All Rights Reserved.
Screenwriters: Стивен Чбоски, Эван Спилиотопулос, Жанна-Мари Лепренс де Бомон
Producers: Стив Гауб, Дон Хан, Дэвид Хоберман
Director: Билл Кондон
Cast: Эмма Уотсон, Дэн Стивенс, Люк Эванс, Джош Гад, Кевин Клайн, Хэтти Морахэн, Хейдн Гвин, Джерард Хоран, Рэй Фиарон, Юэн МакГрегор, Юлия Довганишина, Андрей Бирин, Дмитрий Ермак, Вадим Мичман, Александр Давыдов
Studio: Walt Disney Pictures
Rating: 3
Long Description: Обозлённая Волшебница превратила принца Адама в отвратительное чудовище за то, что тот был злым, самовлюблённым и грубым. Чтобы снять чары с себя и слуг своего замка, ему необходимо научиться быть добрым, любить и быть любимым. Произойти это должно до того, как с розы, подаренной Волшебницей, упадёт последний лепесток.
В далёкой деревушке живёт красивая девушка по имени Белль. Однажды её отец Морис отправляется на ярмарку, но по дороге сбивается с пути. Оказавшись в заколдованном замке, он становится пленником Чудовища. Белль спешит отцу на помощь.
Description: Обозлённая Волшебница превратила принца Адама в отвратительное чудовище за то, что тот был злым, самовлюблённым и грубым. Чтобы снять чары с себя и слуг своего замка, ему необходимо научиться быть добрым, любить и быть любимым. Произойти это должно до того, как с розы, подаренной Волшебницей, упадёт последний лепесток.
В далёкой деревушке живёт красивая девушка по имени Белль. Однажды её отец Морис отправляется на ярмарку, но по дороге сбивается с пути. Оказавшись в заколдованном замке, он становится пленником Чудовища. Белль спешит отцу на помощь.
Release Date: 2017-02-23T08:00:00Z
Genre: Kids & Family
Artist: Bill Condon
Name: Beauty and the Beast (2017)

MediaInfo

General
Complete name : /Users/imac/HandBrake/Beauty.and.the.Beast.(2017).(480p).(pk).m4v
Format : MPEG-4
Codec ID : M4V
File size : 1.41 GiB
Duration : 2h 9mn
Overall bit rate mode : Variable
Overall bit rate : 1 560 Kbps
Movie name : Beauty and the Beast (2017)
Performer : Bill Condon
Director : Билл Кондон
Actor : Эмма Уотсон / Дэн Стивенс / Люк Эванс / Джош Гад / Кевин Клайн / Хэтти Морахэн / Хейдн Гвин / Джерард Хоран / Рэй Фиарон / Юэн МакГрегор / Юлия Довганишина / Андрей Бирин / Дмитрий Ермак / Вадим Мичман / Александр Давыдов
Screenplay by : Стивен Чбоски / Эван Спилиотопулос / Жанна-Мари Лепренс де Бомон
Producer : Стив Гауб / Дон Хан / Дэвид Хоберман
Production studio : Walt Disney Pictures
Genre : Kids & Family
ContentType : Short Film
Description : Обозлённая Волшебница превратила принца Адама в отвратительное чудовище за то, что тот был злым, самовлюблённым и грубым. Чтобы снять чары с себя и слуг своего замка, ему необходимо научиться быть добрым, любить и быть любимым. Произойти это должно до того, как с розы, подаренной Волшебницей, упадёт последний лепесток. / В далёкой деревушке живёт красивая девушка по имени Белль. Однажды её отец Морис отправляется на ярмарку, но по дороге сбивается с пути. Оказавшись в заколдованном замке, он становится пленником Чудовища. Белль спешит отцу на помощь.
Recorded date : UTC 2017-02-23 08:00:00
Encoded date : UTC 2017-06-16 15:47:56
Tagged date : UTC 2017-06-16 15:49:33
Copyright : © 2017 Disney Enterprises, Inc. All Rights Reserved.
Cover : Yes
Rating : None
Title/Sort : Beauty and the Beast
LongDescription : Обозлённая Волшебница превратила принца Адама в отвратительное чудовище за то, что тот был злым, самовлюблённым и грубым. Чтобы снять чары с себя и слуг своего замка, ему необходимо научиться быть добрым, любить и быть любимым. Произойти это должно до того, как с розы, подаренной Волшебницей, упадёт последний лепесток. / В далёкой деревушке живёт красивая девушка по имени Белль. Однажды её отец Морис отправляется на ярмарку, но по дороге сбивается с пути. Оказавшись в заколдованном замке, он становится пленником Чудовища. Белль спешит отцу на помощь.
AppleStoreCatalogID : 1212678379
Vendor : Apple:vendor_id:2017-744987
ContentRating : mpaa|PG|200|
Video #1
ID : 1
Format : AVC
Format/Info : Advanced Video Codec
Format profile : [email protected]
Format settings, CABAC : No
Format settings, ReFrames : 2 frames
Codec ID : avc1
Codec ID/Info : Advanced Video Coding
Duration : 2h 9mn
Bit rate : 1 300 Kbps
Width : 640 pixels
Height : 356 pixels
Display aspect ratio : 2.40:1
Frame rate mode : Variable
Frame rate : 23.976 fps
Minimum frame rate : 23.974 fps
Maximum frame rate : 23.981 fps
Color space : YUV
Chroma subsampling : 4:2:0
Bit depth : 8 bits
Scan type : Progressive
Bits/(Pixel*Frame) : 0.238
Stream size : 1.17 GiB (83%)
Title : Main Program
Writing library : x264 core 148 r2708 86b7198
Encoding settings : cabac=0 / ref=2 / deblock=1:0:0 / analyse=0x1:0x111 / me=umh / subme=6 / psy=1 / psy_rd=1.00:0.00 / mixed_ref=1 / me_range=16 / chroma_me=1 / trellis=0 / 8x8dct=0 / cqm=0 / deadzone=21,11 / fast_pskip=1 / chroma_qp_offset=-2 / threads=11 / lookahead_threads=1 / sliced_threads=0 / nr=0 / decimate=1 / interlaced=0 / bluray_compat=0 / constrained_intra=0 / bframes=0 / weightp=0 / keyint=240 / keyint_min=24 / scenecut=40 / intra_refresh=0 / rc_lookahead=40 / rc=2pass / mbtree=1 / bitrate=1300 / ratetol=1.0 / qcomp=0.60 / qpmin=0 / qpmax=69 / qpstep=4 / cplxblur=20.0 / qblur=0.5 / vbv_maxrate=5000 / vbv_bufsize=5000 / nal_hrd=none / filler=0 / ip_ratio=1.40 / aq=1:1.00
Language : English
Encoded date : UTC 2017-06-16 15:47:56
Tagged date : UTC 2017-06-16 15:48:01
Color range : Limited
Color primaries : BT.709
Transfer characteristics : BT.709
Matrix coefficients : BT.709
Video #2
ID : 7
Format : JPEG
Codec ID : jpeg
Duration : 2h 9mn
Bit rate mode : Variable
Bit rate : 895 bps
Width : 640 pixels
Height : 267 pixels
Display aspect ratio : 2.40:1
Frame rate mode : Variable
Frame rate : 0.003 fps
Minimum frame rate : 0.002 fps
Maximum frame rate : 0.007 fps
Color space : YUV
Chroma subsampling : 4:2:0
Bit depth : 8 bits
Compression mode : Lossy
Bits/(Pixel*Frame) : 1.746
Stream size : 874 KiB (0%)
Title : Chapter Images
Language : English
Encoded date : UTC 2017-06-16 15:48:08
Tagged date : UTC 2017-06-16 15:48:08
Audio #1
ID : 2
Format : AAC
Format/Info : Advanced Audio Codec
Format profile : LC
Codec ID : 40
Duration : 2h 9mn
Bit rate mode : Variable
Bit rate : 126 Kbps
Maximum bit rate : 184 Kbps
Channel(s) : 2 channels
Channel positions : Front: L R
Sampling rate : 48.0 KHz
Compression mode : Lossy
Stream size : 116 MiB (8%)
Title : Russian Stereo
Language : Russian
Encoded date : UTC 2017-06-16 15:47:56
Tagged date : UTC 2017-06-16 15:48:04
Audio #2
ID : 3
Format : AAC
Format/Info : Advanced Audio Codec
Format profile : LC
Codec ID : 40
Duration : 2h 9mn
Bit rate mode : Variable
Bit rate : 127 Kbps
Maximum bit rate : 191 Kbps
Channel(s) : 2 channels
Channel positions : Front: L R
Sampling rate : 48.0 KHz
Compression mode : Lossy
Stream size : 117 MiB (8%)
Title : English Stereo
Language : English
Encoded date : UTC 2017-06-16 15:47:56
Tagged date : UTC 2017-06-16 15:48:04
Text #1
ID : 4
Format : Timed Text
Muxing mode : sbtl
Codec ID : tx3g
Duration : 1h 58mn
Bit rate mode : Variable
Bit rate : 94 bps
Stream size : 81.3 KiB (0%)
Title : Russian full
Language : Russian
Encoded date : UTC 2017-06-16 15:47:56
Tagged date : UTC 2017-06-16 15:48:03
Text #2
ID : 5
Format : Timed Text
Muxing mode : sbtl
Codec ID : tx3g
Duration : 2h 8mn
Bit rate mode : Variable
Bit rate : 67 bps
Stream size : 63.2 KiB (0%)
Title : English full
Language : English
Encoded date : UTC 2017-06-16 15:47:56
Tagged date : UTC 2017-06-16 15:48:04
Menu #1
00:00:00.000 : Chapter 1
00:04:36.276 : Chapter 2
00:08:06.528 : Chapter 3
00:11:18.261 : Chapter 4
00:15:21.546 : Chapter 5
00:18:56.802 : Chapter 6
00:25:05.921 : Chapter 7
00:31:41.566 : Chapter 8
00:36:08.708 : Chapter 9
00:42:31.632 : Chapter 10
00:47:01.319 : Chapter 11
00:54:44.990 : Chapter 12
01:00:43.557 : Chapter 13
01:07:40.932 : Chapter 14
01:14:38.224 : Chapter 15
01:19:43.696 : Chapter 16
01:22:02.751 : Chapter 17
01:28:53.370 : Chapter 18
01:34:00.426 : Chapter 19
01:38:10.176 : Chapter 20
01:45:23.692 : Chapter 21
01:49:13.964 : Chapter 22
01:55:54.197 : Chapter 23
01:58:49.497 : Chapter 24
Menu #2
ID : 6
Codec ID : text
Duration : 2h 9mn
Language : English
Encoded date : UTC 2017-06-16 15:48:04
Tagged date : UTC 2017-06-16 15:48:04
00:00:00.000 : Chapter 1
00:04:36.276 : Chapter 2
00:08:06.528 : Chapter 3
00:11:18.261 : Chapter 4
00:15:21.546 : Chapter 5
00:18:56.802 : Chapter 6
00:25:05.921 : Chapter 7
00:31:41.566 : Chapter 8
00:36:08.708 : Chapter 9
00:42:31.632 : Chapter 10
00:47:01.319 : Chapter 11
00:54:44.990 : Chapter 12
01:00:43.557 : Chapter 13
01:07:40.932 : Chapter 14
01:14:38.224 : Chapter 15
01:19:43.696 : Chapter 16
01:22:02.751 : Chapter 17
01:28:53.370 : Chapter 18
01:34:00.426 : Chapter 19
01:38:10.176 : Chapter 20
01:45:23.692 : Chapter 21
01:49:13.964 : Chapter 22
01:55:54.197 : Chapter 23
01:58:49.497 : Chapter 24
Bit rate mode : VBR

Скриншоты


Размер .torrent файла 29 KB

Registered [ 2017-06-16 20:36 ] · 9119DD5CAE5E826A4E4F02DE86FFE6DE90CD1B40
checked
Размер файлов 1.41 GB
Инструкции / FAQКак скачать раздачуРейтинг упал ниже 0,3?Seed-бонусы за сидированиеQA по скорости скачивания

Красавица и чудовище / Beauty and the Beast (Билл Кондон) [2017, Mюзикл, фэнтези, мелодрама, семейный, BDRip]

КОММЕНТАРИИ

Likes

Только убери розовый и скрины по центру.

Красавица и чудовище / Beauty and the Beast (Билл Кондон) [2017, Mюзикл, фэнтези, мелодрама, семейный, BDRip]

      

Comments

 
Heads necessary to send messages to enable JavaScript

Less time searching
more time doing

Toomac has more than 1500 other beautifully designed tools in one collection. No ads, no in-app purchases, no paying for updates. Just apps, fully unlocked. Toomac is $9.99/month. You get an entire week free to try it out.


Get started Free trial for 7 days



Powered by TorrentPier II © Meithar, TorrentPier II Team